(Baroque Oratorio) Handel - L'Allegro, il Penseroso ed il Moderato (Perillo, Hannigan, Schoch, MacLeod - Frankfurt Baroque Orchestra, Martini)rillo, Hannigan, Schoch, MacL - 2005, APE (image+.cue) lossless


Статистика раздачи [Обновить пиров]
Размер:  512 MB   |    Зарегистрирован:  1 год 1 месяц   |    Скачан:  0 раз

Полного источника не было: Никогда

 
   
 
 
 

[Цитировать]

George Frideric Handel - L'Allegro, il Penseroso ed il Moderato, HWV 55
Жанр: Baroque Oratorio
Страна-производитель диска: EU
Год издания диска: 2005
Издатель (лейбл): Naxos
Номер по каталогу: 8557057-58
Дата записи: 2002
Аудиокодек: APE
Тип рипа: image+.cue
Битрейт аудио: lossless
Продолжительность: 59'10 + 71'29
Источник: собственный рип
Наличие сканов в содержимом раздачи: да
Треклист:

CD1

1. Part I, No. 1: Ouverture
2. Part I, No. 2: Accompagnato - Hence, loathed Melancholy
3. Part I, No. 3: Accompagnato - Hence, vain deluding joys
4. Part I, No. 4: Air - Come, thou Goddess fair and free
5. Part I, No. 5: Air - Come rather, Goddess, sage and holy
6. Part I, No. 6: Air - Haste thee, nymph
7. Part I, No. 7: Air - Come and trip it (Teno
8. Part I, No. 8: Accompagnato - Come, pensive Nun
9. Part I, No. 9: Arioso - Come, but keep thy wonted state
10. Part I, No. 10: Accompagnato - There, held in holy passion still Arioso - Join with thee
11. Part I, No. 11: Recitative - Hence, loathed Melancholy
12. Part I, No. 12: Air - Mirth, admit me of thy crew
13. Part I, No. 13: Accompagnato - First and chief, on golden wing
14. Part I, No. 14: Air - Sweet bird
15. Part I, No. 15: Recitative - If I give thee honour due
16. Part I, No. 16: Air - Mirth, admit me of thy crew
17. Part I, No. 17: Air - Oft, on a plat of rising ground
18. Part I, No. 18: Air - Far from all resort of mirth
19. Part I, No. 19: Recitative - If I give thee honour due
20. Part I, No. 20: Air - Let me wander not unseen
21. Part I, No. 21: Air - Straight mine eye
22. Part I, No. 22: Accompagnato - Mountains, on whose barren breast
23. Part I, No. 23: Air - Or let the merry bells ring round - And young and old come forth to play

CD2

1. Part II, No. 24: Ouverture
2. Part II, No. 25: Accompagnato - Hence, vain deluding Joys
3. Part II, No. 26: Air - Sometimes let gorgeous Tragedy
4. Part II, No. 27: Air - But oh, sad virgin
5. Part II, No. 28: Recitative - Thus, Night, oft see me
6. Part II, No. 29: Bass solo and Chorus - Populous cities please me then
7. Part II, No. 30: Air - There let Hymen oft appear
8. Part II, No. 31: Accompagnato - Me, when the Sun begins to fling
9. Part II, No. 32: Air - Hide me from Day's garnish eye
10. Part II, No. 33: Air - I'll to the well - trod stage anon
11. Part II, No. 34: Air - And ever against eating cares
12. Part II, No. 35: Air - Orpheus self may have his head
13. Part II, No. 36: Air and Chorus - These delights if thou canst give
14. Part II, No. 37: Recitative - But ley my due feet never fail
15. Part II, No. 38: Chorus - There let the pealing organ blow
16. Part II, No. 39: Air - May at last my weary age
17. Part II, No. 40: Chorus - These pleasures, Melancholy, give
18. Part III, No. 41: Ouverture
19. Part III, No. 42: Accompagnato - Hence! Boast not, ye profane
20. Part III, No. 43: Air - Come, with native lustre shine
21. Part III, No. 44: Accompagnato - Sweet Temp'rance
22. Part III, No. 45: Air - Come, with gentle hand restrain
23. Part III, No. 46: Recitative - No more short life they then will spend in straying
24. Part III, No. 47: Air - Each action will derive new grace
25. Part III, No. 48: Duet - As steals the morn upon the night
26. Part III, No. 49: Chorus - Thy pleasures, Moderation, give
Исполнители:
Georg Frideric Handel - L'Allegro, il Penseroso ed il Moderato, HWV 55
Pastoral ode based on poetry by Milton
Linda Perillo (soprano)
Barbara Hannigan (soprano)
Knut Schoch (tenor)
Stephan MacLeod (bass)
Junge Kantorei
Frankfurt Baroque Orchestra
Joachim Carlos Martini

Лог создания рипа

CD1

Exact Audio Copy V1.0 beta 3 from 29. August 2011
EAC extraction logfile from 27. July 2014, 14:04
Handel / L'Allegro, il Penseroso ed il Moderato, Martini CD1
Used drive : TS8XDVDSTRANSCEND Adapter: 1 ID: 0
Read mode : Secure
Utilize accurate stream : Yes
Defeat audio cache : Yes
Make use of C2 pointers : No
Read offset correction : 6
Overread into Lead-In and Lead-Out : No
Fill up missing offset samples with silence : Yes
Delete leading and trailing silent blocks : No
Null samples used in CRC calculations : Yes
Used interface : Native Win32 interface for Win NT & 2000
Used output format : Monkey's Audio Lossless Encoder
Selected bitrate : High Lossless Compression
Quality : High
Add ID3 tag : No
Command line compressor : C:\Program Files (x86)\Exact Audio Copy\MAC\MAC.exe
TOC of the extracted CD
Track | Start | Length | Start sector | End sector
---------------------------------------------------------
1 | 0:00.00 | 6:06.47 | 0 | 27496
2 | 6:06.47 | 1:53.35 | 27497 | 36006
3 | 8:00.07 | 1:03.20 | 36007 | 40751
4 | 9:03.27 | 1:35.68 | 40752 | 47944
5 | 10:39.20 | 3:08.30 | 47945 | 62074
6 | 13:47.50 | 2:37.20 | 62075 | 73869
7 | 16:24.70 | 2:30.37 | 73870 | 85156
8 | 18:55.32 | 1:02.40 | 85157 | 89846
9 | 19:57.72 | 1:19.25 | 89847 | 95796
10 | 21:17.22 | 3:42.55 | 95797 | 112501
11 | 25:00.02 | 0:41.15 | 112502 | 115591
12 | 25:41.17 | 3:56.05 | 115592 | 133296
13 | 29:37.22 | 0:50.53 | 133297 | 137099
14 | 30:28.00 | 10:41.25 | 137100 | 185199
15 | 41:09.25 | 0:17.50 | 185200 | 186524
16 | 41:27.00 | 2:29.05 | 186525 | 197704
17 | 43:56.05 | 2:48.02 | 197705 | 210306
18 | 46:44.07 | 2:49.05 | 210307 | 222986
19 | 49:33.12 | 0:15.55 | 222987 | 224166
20 | 49:48.67 | 1:24.28 | 224167 | 230494
21 | 51:13.20 | 1:51.65 | 230495 | 238884
22 | 53:05.10 | 1:53.05 | 238885 | 247364
23 | 54:58.15 | 4:11.60 | 247365 | 266249
Range status and errors
Selected range
Filename D:\EAC\Handel - L'Allegro, il Penseroso ed il Moderato, Martini CD1.wav
Peak level 89.1 %
Extraction speed 3.0 X
Range quality 100.0 %
Test CRC 3BDBF06B
Copy CRC 3BDBF06B
Copy OK
No errors occurred
AccurateRip summary
Track 1 accurately ripped (confidence 1) [F2B070FA] (AR v1)
Track 2 accurately ripped (confidence 1) [5095EACA] (AR v1)
Track 3 accurately ripped (confidence 1) [D1F2F7B6] (AR v1)
Track 4 accurately ripped (confidence 1) [AC991ABA] (AR v1)
Track 5 accurately ripped (confidence 1) [D78EE877] (AR v1)
Track 6 accurately ripped (confidence 1) [D9D5676F] (AR v1)
Track 7 accurately ripped (confidence 1) [88680198] (AR v1)
Track 8 accurately ripped (confidence 1) [BFCDD5DA] (AR v1)
Track 9 accurately ripped (confidence 1) [12830B21] (AR v1)
Track 10 accurately ripped (confidence 1) [A35A0D0E] (AR v1)
Track 11 accurately ripped (confidence 1) [2607CFB9] (AR v1)
Track 12 accurately ripped (confidence 1) [AC7E038E] (AR v1)
Track 13 accurately ripped (confidence 1) [CF0A0E18] (AR v1)
Track 14 accurately ripped (confidence 1) [81FD3841] (AR v1)
Track 15 accurately ripped (confidence 1) [6AA3160D] (AR v1)
Track 16 accurately ripped (confidence 1) [AD1A79FE] (AR v1)
Track 17 accurately ripped (confidence 1) [DFDC768A] (AR v1)
Track 18 accurately ripped (confidence 1) [56558EB1] (AR v1)
Track 19 accurately ripped (confidence 1) [AED02F74] (AR v1)
Track 20 accurately ripped (confidence 1) [498C9151] (AR v1)
Track 21 accurately ripped (confidence 1) [72FF019D] (AR v1)
Track 22 accurately ripped (confidence 1) [BA96CE44] (AR v1)
Track 23 accurately ripped (confidence 1) [87EDE94F] (AR v1)
All tracks accurately ripped
End of status report
---- CUETools DB Plugin V2.1.3
[CTDB TOCID: CaBJ06JK1pUVaYfN8RA_y2GGKqA-] found, Submit result: unrecognized or virtual drive
[c4497e4e] (1/1) Accurately ripped
==== Log checksum 130D9D29466531DE2CF2AAB8DD7CB29ACFC8616211CED9E9ABC65C18D90B481D ====

CD2

Exact Audio Copy V1.0 beta 3 from 29. August 2011
EAC extraction logfile from 27. July 2014, 13:54
Handel / L'Allegro, il Penseroso ed il Moderato. Martini CD2
Used drive : TSSTcorpCDDVDW SE-208AB Adapter: 1 ID: 1
Read mode : Secure
Utilize accurate stream : Yes
Defeat audio cache : Yes
Make use of C2 pointers : No
Read offset correction : 6
Overread into Lead-In and Lead-Out : No
Fill up missing offset samples with silence : Yes
Delete leading and trailing silent blocks : No
Null samples used in CRC calculations : Yes
Used interface : Native Win32 interface for Win NT & 2000
Used output format : Monkey's Audio Lossless Encoder
Selected bitrate : High Lossless Compression
Quality : High
Add ID3 tag : No
Command line compressor : C:\Program Files (x86)\Exact Audio Copy\MAC\MAC.exe
TOC of the extracted CD
Track | Start | Length | Start sector | End sector
---------------------------------------------------------
1 | 0:00.00 | 5:32.10 | 0 | 24909
2 | 5:32.10 | 1:17.65 | 24910 | 30749
3 | 6:50.00 | 3:58.20 | 30750 | 48619
4 | 10:48.20 | 5:45.50 | 48620 | 74544
5 | 16:33.70 | 0:18.60 | 74545 | 75954
6 | 16:52.55 | 3:48.67 | 75955 | 93121
7 | 20:41.47 | 2:32.28 | 93122 | 104549
8 | 23:14.00 | 0:40.30 | 104550 | 107579
9 | 23:54.30 | 3:15.00 | 107580 | 122204
10 | 27:09.30 | 1:46.27 | 122205 | 130181
11 | 28:55.57 | 2:51.70 | 130182 | 143076
12 | 31:47.52 | 2:43.50 | 143077 | 155351
13 | 34:31.27 | 3:45.58 | 155352 | 172284
14 | 38:17.10 | 0:42.15 | 172285 | 175449
15 | 38:59.25 | 1:29.37 | 175450 | 182161
16 | 40:28.62 | 3:09.38 | 182162 | 196374
17 | 43:38.25 | 3:06.60 | 196375 | 210384
18 | 46:45.10 | 5:37.65 | 210385 | 235724
19 | 52:23.00 | 0:38.40 | 235725 | 238614
20 | 53:01.40 | 2:42.70 | 238615 | 250834
21 | 55:44.35 | 2:46.67 | 250835 | 263351
22 | 58:31.27 | 1:49.10 | 263352 | 271536
23 | 60:20.37 | 0:40.00 | 271537 | 274536
24 | 61:00.37 | 2:03.50 | 274537 | 283811
25 | 63:04.12 | 5:45.05 | 283812 | 309691
26 | 68:49.17 | 2:39.58 | 309692 | 321674
Range status and errors
Selected range
Filename D:\EAC\Handel - L'Allegro, il Penseroso ed il Moderato. Martini CD2.wav
Peak level 98.1 %
Extraction speed 5.1 X
Range quality 100.0 %
Test CRC C163DB36
Copy CRC C163DB36
Copy OK
No errors occurred
AccurateRip summary
Track 1 accurately ripped (confidence 1) [E2E023C1] (AR v1)
Track 2 accurately ripped (confidence 1) [8D3E963F] (AR v1)
Track 3 accurately ripped (confidence 1) [15594849] (AR v1)
Track 4 accurately ripped (confidence 1) [1D09F97D] (AR v1)
Track 5 accurately ripped (confidence 1) [6533927A] (AR v1)
Track 6 accurately ripped (confidence 1) [00D3F4DA] (AR v1)
Track 7 accurately ripped (confidence 1) [A1EE6C5D] (AR v1)
Track 8 accurately ripped (confidence 1) [87123D8E] (AR v1)
Track 9 accurately ripped (confidence 1) [62827EE1] (AR v1)
Track 10 accurately ripped (confidence 1) [3BEAEAAE] (AR v1)
Track 11 accurately ripped (confidence 1) [7A03ECE0] (AR v1)
Track 12 accurately ripped (confidence 1) [D5D73BA7] (AR v1)
Track 13 accurately ripped (confidence 1) [443C57FD] (AR v1)
Track 14 accurately ripped (confidence 1) [CA673B3A] (AR v1)
Track 15 accurately ripped (confidence 1) [E8CDCB3A] (AR v1)
Track 16 accurately ripped (confidence 1) [EC390085] (AR v1)
Track 17 accurately ripped (confidence 1) [0D246E6C] (AR v1)
Track 18 accurately ripped (confidence 1) [6D76F756] (AR v1)
Track 19 accurately ripped (confidence 1) [95FA4BAC] (AR v1)
Track 20 accurately ripped (confidence 1) [A623C597] (AR v1)
Track 21 accurately ripped (confidence 1) [131ECE61] (AR v1)
Track 22 accurately ripped (confidence 1) [884752AA] (AR v1)
Track 23 accurately ripped (confidence 1) [219C3A47] (AR v1)
Track 24 accurately ripped (confidence 1) [D0B7CE58] (AR v1)
Track 25 accurately ripped (confidence 1) [8BFD73AC] (AR v1)
Track 26 accurately ripped (confidence 1) [EDEE756A] (AR v1)
All tracks accurately ripped
End of status report
---- CUETools DB Plugin V2.1.3
[CTDB TOCID: 07IViFJN0VX88wCfalYFQls5loc-] found, Submit result: 07IViFJN0VX88wCfalYFQls5loc- has been confirmed
[b70ca4e0] (3/3) Accurately ripped
==== Log checksum 420ECBB4F37C5AAEA12623E2DD6A7109B1F43F1759022854B13BBCE3F041C967 ====

Содержание индексной карты (.CUE)

CD1

REM GENRE Oratorio
REM DATE 2002
REM DISCID 6C0DDE17
REM COMMENT "ExactAudioCopy v1.0b3"
PERFORMER "Handel"
TITLE "L'Allegro, il Penseroso ed il Moderato, Martini CD1"
FILE "Handel - L'Allegro, il Penseroso ed il Moderato, Martini CD1.ape" WAVE
TRACK 01 AUDIO
TITLE "Ouverture: Concerto grosso, Op.6,No.1"
PERFORMER "Handel"
ISRC HKI190414801
INDEX 01 00:00:00
TRACK 02 AUDIO
TITLE "Accompagnato: Hence, loathed Melancholy (L'Allegro: Tenor)"
PERFORMER "Handel"
ISRC HKI190414802
INDEX 01 06:06:47
TRACK 03 AUDIO
TITLE "Accompagnato: Hence, vain deluding joys (Il Penseroso)"
PERFORMER "Handel"
ISRC HKI190414802
INDEX 01 08:00:07
TRACK 04 AUDIO
TITLE "Air: Come, thou Goddess fair and free (L'Allegro)"
PERFORMER "Handel"
ISRC HKI190414804
INDEX 01 09:03:27
TRACK 05 AUDIO
TITLE "Air: Come rather,Goddess, sage and holy (Il Penseroso: Soprano)"
PERFORMER "Handel"
ISRC HKI190414805
INDEX 01 10:39:20
TRACK 06 AUDIO
TITLE ": Air: Haste thee, nymph (L'Allegro: Tenor, Chorus)"
PERFORMER "Handel"
ISRC HKI190414806
INDEX 01 13:47:50
TRACK 07 AUDIO
TITLE "Air: Come and trip it (Tenor, Chorus)"
PERFORMER "Handel"
ISRC HKI190414807
INDEX 01 16:24:70
TRACK 08 AUDIO
TITLE "Accompagnato: Come,pensive Nun (Il Penseroso: Soprano)"
PERFORMER "Handel"
ISRC HKI190414808
INDEX 01 18:55:32
TRACK 09 AUDIO
TITLE "Arioso: Come, but keep thy wonted state (Soprano)"
PERFORMER "Handel"
ISRC HKI190414809
INDEX 01 19:57:72
TRACK 10 AUDIO
TITLE "Accompagnato: There, held in holy passion still (Soprano) - Arioso: Join wit..."
PERFORMER "Handel"
ISRC HKI190414810
INDEX 01 21:17:22
TRACK 11 AUDIO
TITLE "Recitative: Hence, loathed Melancholy (L'Allegro: Tenor, Soprano)"
PERFORMER "Handel"
ISRC HKI190414811
INDEX 01 25:00:02
TRACK 12 AUDIO
TITLE "Air: Mirth, admit me of thy crew (Soprano)"
PERFORMER "Handel"
ISRC HKI190414812
INDEX 01 25:41:17
TRACK 13 AUDIO
TITLE "Accompagnato: First and chief, on golden wing (Il Penseroso: Soprano)"
PERFORMER "Handel"
ISRC HKI190414813
INDEX 01 29:37:22
TRACK 14 AUDIO
TITLE "Air: Sweet bird (Soprano)"
PERFORMER "Handel"
ISRC HKI190414814
INDEX 01 30:28:00
TRACK 15 AUDIO
TITLE "Recitative: If I give thee honour due (L'Allegro: Bass)"
PERFORMER "Handel"
ISRC HKI190414815
INDEX 01 41:09:25
TRACK 16 AUDIO
TITLE "Air: Mirth, admit me of thy crew (Bass)"
PERFORMER "Handel"
ISRC HKI190414816
INDEX 01 41:27:00
TRACK 17 AUDIO
TITLE "Air: Oft, on a plat of rising ground (Il Penseroso: Soprano)"
PERFORMER "Handel"
ISRC HKI190414817
INDEX 01 43:56:05
TRACK 18 AUDIO
TITLE "Air: Far from all resort of mirth (Soprano)"
PERFORMER "Handel"
ISRC HKI190414818
INDEX 01 46:44:07
TRACK 19 AUDIO
TITLE ": Recitative:If I give thee honour due (L'Allegro: Tenor)"
PERFORMER "Handel"
ISRC HKI190414819
INDEX 01 49:33:12
TRACK 20 AUDIO
TITLE "Air: Let me wander not unseen (Tenor)"
PERFORMER "Handel"
ISRC HKI190414820
INDEX 01 49:48:67
TRACK 21 AUDIO
TITLE "Air: Straight mine eye (Soprano)"
PERFORMER "Handel"
ISRC HKI190414821
INDEX 01 51:13:20
TRACK 22 AUDIO
TITLE "Accompagnato: Mountains, on whose barren breast (Bass)"
PERFORMER "Handel"
ISRC HKI190414822
INDEX 01 53:05:10
TRACK 23 AUDIO
TITLE "Air: Or let the merry bells ring round (Soprano) - And young and old come for..."
PERFORMER "Handel"
ISRC HKI190414823
INDEX 01 54:58:15

CD2

REM GENRE Oratorio
REM DATE 2002
REM DISCID 5E10C11A
REM COMMENT "ExactAudioCopy v1.0b3"
PERFORMER "Handel"
TITLE "L'Allegro, il Penseroso ed il Moderato. Martini CD2"
FILE "Handel - L'Allegro, il Penseroso ed il Moderato. Martini CD2.ape" WAVE
TRACK 01 AUDIO
TITLE "Ouverture: Concerto grosso, Op. 6, No. 3)"
PERFORMER "Handel"
ISRC HKI190414901
INDEX 01 00:00:00
TRACK 02 AUDIO
TITLE "Accompagnato: Hence, vain deluding Joys (Il Penseroso: Soprano)"
PERFORMER "Handel"
ISRC HKI190414902
INDEX 01 05:32:10
TRACK 03 AUDIO
TITLE "Air: Sometimes let gorgeous Tragedy (Soprano)"
PERFORMER "Handel"
ISRC HKI190414903
INDEX 01 06:50:00
TRACK 04 AUDIO
TITLE "Air: But oh, sad virgin (Soprano)"
PERFORMER "Handel"
ISRC HKI190414904
INDEX 01 10:48:20
TRACK 05 AUDIO
TITLE "Recitative: Thus, Night, oft see me (Soprano)"
PERFORMER "Handel"
ISRC HKI190414905
INDEX 01 16:33:70
TRACK 06 AUDIO
TITLE "Bass solo (L'Allegro: Bass) and Chorus: Populous cities please me then"
PERFORMER "Handel"
ISRC HKI190414906
INDEX 01 16:52:55
TRACK 07 AUDIO
TITLE "Air: There let Hymen oft appear (Soprano)"
PERFORMER "Handel"
ISRC HKI190414907
INDEX 01 20:41:47
TRACK 08 AUDIO
TITLE "Accompagnato: Me, when the Sun begins to fling (Il Penseroso: Soprano)"
PERFORMER "Handel"
ISRC HKI190414908
INDEX 01 23:14:00
TRACK 09 AUDIO
TITLE "Air: Hide me from Day's garnish eye (Soprano)"
PERFORMER "Handel"
ISRC HKI190414909
INDEX 01 23:54:30
TRACK 10 AUDIO
TITLE "Air: I'll to the well-trod stage anon (Il Allegro: Tenor)"
PERFORMER "Handel"
ISRC HKI190414910
INDEX 01 27:09:30
TRACK 11 AUDIO
TITLE "Air: And ever against eating cares (Soprano)"
PERFORMER "Handel"
ISRC HKI190414911
INDEX 01 28:55:57
TRACK 12 AUDIO
TITLE "Air: Orpheus self may have his head (Soprano"
PERFORMER "Handel"
ISRC HKI190414912
INDEX 01 31:47:52
TRACK 13 AUDIO
TITLE "Air and Chorus: These delights if thou canst give (Tenor, Chorus)"
PERFORMER "Handel"
ISRC HKI190414913
INDEX 01 34:31:27
TRACK 14 AUDIO
TITLE "Recitative: But ley my due feet never fail (Il Penseroso: Soprano)"
PERFORMER "Handel"
ISRC HKI190414914
INDEX 01 38:17:10
TRACK 15 AUDIO
TITLE "Chorus: There let the pealing organ blow"
PERFORMER "Handel"
ISRC HKI190414915
INDEX 01 38:59:25
TRACK 16 AUDIO
TITLE "Air: May at last my weary age (Soprano)"
PERFORMER "Handel"
ISRC HKI190414916
INDEX 01 40:28:62
TRACK 17 AUDIO
TITLE "Chorus: These pleasures, Melancholy, give"
PERFORMER "Handel"
ISRC HKI190414917
INDEX 01 43:38:25
TRACK 18 AUDIO
TITLE "Ouverture: Concerto for Organ and Orchestra, Op.7,No.1"
PERFORMER "Handel"
ISRC HKI190414918
INDEX 00 46:39:22
INDEX 01 46:45:10
TRACK 19 AUDIO
TITLE "Accompagnato: Hence! Boast not, ye profane (Il Moderato: Bass)"
PERFORMER "Handel"
ISRC HKI190414919
INDEX 01 52:23:00
TRACK 20 AUDIO
TITLE "Air: Come, with native lustre shine (Bass)"
PERFORMER "Handel"
ISRC HKI190414920
INDEX 01 53:01:40
TRACK 21 AUDIO
TITLE "Accompagnato: Sweet Temp'rance (Bass); Chorus - All this company serene"
PERFORMER "Handel"
ISRC HKI190414921
INDEX 01 55:44:35
TRACK 22 AUDIO
TITLE "Air: Come, with gentle hand restrain (Soprano)"
PERFORMER "Handel"
ISRC HKI190414922
INDEX 01 58:31:27
TRACK 23 AUDIO
TITLE "Recitative: No more short life they then will spend in straying (Tenor)"
PERFORMER "Handel"
ISRC HKI190414923
INDEX 01 60:20:37
TRACK 24 AUDIO
TITLE "Air: Each action will derive new grace (Tenor)"
PERFORMER "Handel"
ISRC HKI190414924
INDEX 01 61:00:37
TRACK 25 AUDIO
TITLE "Duet: As steals the morn upon the night (Soprano and Tenor)"
PERFORMER "Handel"
ISRC HKI190414925
INDEX 01 63:04:12
TRACK 26 AUDIO
TITLE "Chorus: Thy pleasures, Moderation, give, In them alone we truly live"
PERFORMER "Handel"
ISRC HKI190414926
INDEX 01 68:49:17
Наслаждайтесь!!
[teatrix.ru].t7922.torrent 
Торрент: Зарегистрирован [ 2015-10-14 02:42 ] · CC2926D70897FB7CA01ABEF5E8D7E2353B470797

Скачать .torrent

Скачать

22 KB

Статус: проверено
Скачан: 0 раз
Размер: 512 MB
terms.php



Быстрый ответ

Имя:

      
Для отправки сообщений необходимо включить JavaScript
Показать сообщения:    

Текущее время: 02-Дек 23:05

Часовой пояс: UTC + 3


Вы можете начинать темы
Вы можете отвечать на сообщения
Вы не можете редактировать свои сообщения
Вы не можете удалять свои сообщения
Вы не можете голосовать в опросах
Вы не можете прикреплять файлы к сообщениям
Вы можете скачивать файлы