(Classical / Choral) J.S. Bach - St John Passion BWV 245 (sung in English) - Willcocks, Pears, Watts, Harwood, Ward, Young, Alan, Dart, Preston - 1999, APE (image+.cue) lossless


Статистика раздачи [Обновить пиров]
Размер:  648 MB   |    Зарегистрирован:  1 год 1 месяц   |    Скачан:  0 раз

Полного источника не было: Никогда

 
   
 
 
 

[Цитировать]

Johann Sebastian Bach
John Passion BWV 245
Sir David Willcocks
Philomusica of London

Жанр: Classical / Choral
Страна-производитель диска: EC
Год издания диска: 1999
Издатель (лейбл): © Belart (℗ Decca)
Номер по каталогу: 461 633-2
Дата записи: 1960
Аудиокодек: APE
Тип рипа: image+.cue
Битрейт аудио: lossless
Продолжительность: 02:07:05
Источник: собственный рип
Наличие сканов в содержимом раздачи: да
Исполнители:
Sir Peter Pears - Evangelist
Elizabeth Harwood - Magdalene
Lindsay Heather - Peter
David Ward - Jesus
Brian Etheridge - Pilate
Robert Tear - Servant
Helen Watts - contralto
Alexander Young - tenor
Harvey Alan - bass
The Choir of King's College Cambridge, Philomusica of London
Sir David Willcocks - conductor

Granville Jones - leader
Kenneth Heath - cello continuo
Francis Baines - double bass continuo
Richard Adeney, Christopher Taylor - flute
Joseph Castaldini - bassoon
Maxwell Ward - viola d'amore
Desmond Dupre - viola da gamba and lute
Peter Graeme, Rosemary Wells - oboe, oboe d'amore, oboe da caccia
Thurston Dart - harpsichord
Simon Preston - organ continuo
Доп. информация:English version prepared by Peter Pears and Andrew Raeburn
P.S. Страсти по Иоанну, BWV 245 - B. Britten - ещё один академический англоязычный вариант
Bach - St. Matthew Passion (sung in English) - David Willcocks

ТреклистDISC 1

1. Lord, our redeemer
2 Jesus went with his disciples
3 O wondrous love
4 So that the word might be fulfilled
5 Thy will, o lord our God, be done
6 The band thn, together with the captain
7 From the bondage of transgression
8 Simon Peter also followed jesus
9 I folow thee also
10 Now that the same disciple was known
11 O lord, who dares to smite thee
12 And Annas sent him bound
13 Ah! My soul, o whither wilt thou fly?
14 Peter, faithless, thrice denies
15 Christ, the lord of life and light
16 Then led they Jesus from Caiaphas
17 O mighty King, eternal is thy glory
18 And pilate said unto them
19 Consider, o my soul
20 Behold ye

DISC 2

1 And when the soldiers had plaited a crown of thorns
2 Thy bonds, o son of God most high
3 But the Jews cried out and said
4 Haste, ye deeply wounded spirts
5 And there crucified they him
6 Within my inmost being
7 And then did the soldiers
8 While his parting spirt sinks
9 And from tha hour
10 All is fulfilled
11 And he bowed his head
12 Beloved Saviour, wilt thou answer?
13 And the behold, the veil of the temple
14 My heart, behold how all the world
15 Dissolve now, my spirit
16 The Jews, therefore, because it was the preparation
17 Help us, Christ, almighty Son
18 And after this Joseph of arimathaea
19 Rest calm, o body pure and holy
20 Lord Jesus, thy dear angel send

Отчёт EACDISC 1

Exact Audio Copy V1.0 beta 3 from 29. August 2011
EAC extraction logfile from 20. July 2014, 13:40
Unknown Artist / Unknown Title
Used drive : PIONEER DVD-RW DVRTD11RS Adapter: 1 ID: 0
Read mode : SecureUtilize accurate stream : YesDefeat audio cache : YesMake use of C2 pointers : No
Read offset correction : 6Overread into Lead-In and Lead-Out : NoFill up missing offset samples with silence : YesDelete leading and trailing silent blocks : NoNull samples used in CRC calculations : YesUsed interface : Native Win32 interface for Win NT & 2000
Used output format : User Defined EncoderSelected bitrate : 128 kBit/sQuality : HighAdd ID3 tag : NoCommand line compressor : C:\Program Files\Monkey's Audio\MAC.exeAdditional command line options : %source% %dest% -c3000
TOC of the extracted CD
Track | Start | Length | Start sector | End sector --------------------------------------------------------- 1 | 0:00.32 | 9:51.50 | 32 | 44406 2 | 9:52.07 | 2:51.33 | 44407 | 57264 3 | 12:43.40 | 1:01.50 | 57265 | 61889 4 | 13:45.15 | 1:15.55 | 61890 | 67569 5 | 15:00.70 | 1:08.10 | 67570 | 72679 6 | 16:09.05 | 0:52.65 | 72680 | 76644 7 | 17:01.70 | 5:35.60 | 76645 | 101829 8 | 22:37.55 | 0:18.27 | 101830 | 103206 9 | 22:56.07 | 4:12.13 | 103207 | 122119 10 | 27:08.20 | 3:21.25 | 122120 | 137219 11 | 30:29.45 | 2:01.62 | 137220 | 146356 12 | 32:31.32 | 2:37.00 | 146357 | 158131 13 | 35:08.32 | 3:23.38 | 158132 | 173394 14 | 38:31.70 | 1:19.20 | 173395 | 179339 15 | 39:51.15 | 1:16.07 | 179340 | 185046 16 | 41:07.22 | 4:35.48 | 185047 | 205719 17 | 45:42.70 | 1:57.42 | 205720 | 214536 18 | 47:40.37 | 2:16.00 | 214537 | 224736 19 | 49:56.37 | 2:23.13 | 224737 | 235474 20 | 52:19.50 | 10:53.57 | 235475 | 284506
Range status and errors
Selected range
Filename C:\Documents and Settings\Администратор\Мои документы\CDImage.wav
Peak level 92.3 % Extraction speed 2.4 X Range quality 99.9 % Test CRC C171412B Copy CRC C171412B Copy OK
No errors occurred
AccurateRip summary
Track 1 not present in databaseTrack 2 not present in databaseTrack 3 not present in databaseTrack 4 not present in databaseTrack 5 not present in databaseTrack 6 not present in databaseTrack 7 not present in databaseTrack 8 not present in databaseTrack 9 not present in databaseTrack 10 not present in databaseTrack 11 not present in databaseTrack 12 not present in databaseTrack 13 not present in databaseTrack 14 not present in databaseTrack 15 not present in databaseTrack 16 not present in databaseTrack 17 not present in databaseTrack 18 not present in databaseTrack 19 not present in databaseTrack 20 not present in database
None of the tracks are present in the AccurateRip database
End of status report
---- CUETools DB Plugin V2.1.3
[CTDB TOCID: 29grA.Ucc4XvsIyszKoXgkydh9c-] disk not present in database, Submit result: discs with pregaps not supported in this protocol version
==== Log checksum 836CA38409F1CFA0D527ABCC1968DB3747ADB2DF0557B2AB6EA65EACAEE8CCE8 ====

DISC 2

Exact Audio Copy V1.0 beta 3 from 29. August 2011
EAC extraction logfile from 20. July 2014, 14:58
Bach / St John Passion (Kings College Cambridge)
Used drive : PIONEER DVD-RW DVRTD11RS Adapter: 1 ID: 0
Read mode : SecureUtilize accurate stream : YesDefeat audio cache : YesMake use of C2 pointers : No
Read offset correction : 6Overread into Lead-In and Lead-Out : NoFill up missing offset samples with silence : YesDelete leading and trailing silent blocks : NoNull samples used in CRC calculations : YesUsed interface : Native Win32 interface for Win NT & 2000
Used output format : User Defined EncoderSelected bitrate : 128 kBit/sQuality : HighAdd ID3 tag : NoCommand line compressor : C:\Program Files\Monkey's Audio\MAC.exeAdditional command line options : %source% %dest% -c3000
TOC of the extracted CD
Track | Start | Length | Start sector | End sector --------------------------------------------------------- 1 | 0:00.32 | 6:40.05 | 32 | 30036 2 | 6:40.37 | 0:59.28 | 30037 | 34489 3 | 7:39.65 | 4:42.42 | 34490 | 55681 4 | 12:22.32 | 5:04.40 | 55682 | 78521 5 | 17:26.72 | 2:38.08 | 78522 | 90379 6 | 20:05.05 | 1:08.40 | 90380 | 95519 7 | 21:13.45 | 4:12.10 | 95520 | 114429 8 | 25:25.55 | 1:13.15 | 114430 | 119919 9 | 26:38.70 | 1:51.50 | 119920 | 128294 10 | 28:30.45 | 5:21.25 | 128295 | 152394 11 | 33:51.70 | 0:34.37 | 152395 | 154981 12 | 34:26.32 | 4:26.50 | 154982 | 174981 13 | 38:53.07 | 0:35.63 | 174982 | 177669 14 | 39:28.70 | 0:54.67 | 177670 | 181786 15 | 40:23.62 | 6:51.33 | 181787 | 212644 16 | 47:15.20 | 2:25.50 | 212645 | 223569 17 | 49:40.70 | 1:15.52 | 223570 | 229246 18 | 50:56.47 | 2:35.48 | 229247 | 240919 19 | 53:32.20 | 8:27.50 | 240920 | 278994 20 | 61:59.70 | 2:31.50 | 278995 | 290369
Range status and errors
Selected range
Filename C:\Documents and Settings\Администратор\Мои документы\CDImage.wav
Peak level 100.0 % Extraction speed 2.4 X Range quality 100.0 % Test CRC B0BDF04D Copy CRC B0BDF04D Copy OK
No errors occurred
AccurateRip summary
Track 1 accurately ripped (confidence 1) [1902C344] (AR v1)Track 2 accurately ripped (confidence 1) [7DB56C89] (AR v1)Track 3 accurately ripped (confidence 1) [8B97A9FF] (AR v1)Track 4 accurately ripped (confidence 1) [59CE01F2] (AR v1)Track 5 accurately ripped (confidence 1) [FE93FE2B] (AR v1)Track 6 accurately ripped (confidence 1) [4A8F4997] (AR v1)Track 7 accurately ripped (confidence 1) [6F4A614B] (AR v1)Track 8 accurately ripped (confidence 1) [103E8BF2] (AR v1)Track 9 accurately ripped (confidence 1) [987376CE] (AR v1)Track 10 accurately ripped (confidence 1) [FD9BA687] (AR v1)Track 11 accurately ripped (confidence 1) [DCA9D229] (AR v1)Track 12 accurately ripped (confidence 1) [6C6A24C0] (AR v1)Track 13 accurately ripped (confidence 1) [8B0BDD94] (AR v1)Track 14 accurately ripped (confidence 1) [AC267DA0] (AR v1)Track 15 accurately ripped (confidence 1) [AAD31707] (AR v1)Track 16 accurately ripped (confidence 1) [825D8FD1] (AR v1)Track 17 accurately ripped (confidence 1) [149C9B87] (AR v1)Track 18 accurately ripped (confidence 1) [5EEA5111] (AR v1)Track 19 accurately ripped (confidence 1) [92B970A1] (AR v1)Track 20 accurately ripped (confidence 1) [8DD4BA53] (AR v1)
All tracks accurately ripped
End of status report
---- CUETools DB Plugin V2.1.3
[CTDB TOCID: dRgpKLkeRzdEEN7EhrcQ3Y8EWY8-] disk not present in database, Submit result: database access error: Невозможно разрешить удаленное имя: 'db.cuetools.net'
==== Log checksum 61DD3651138EDB4DFADAFD23F7F4D6136D326AED2A2D3CBA9ED2973FD40502AF ====
[teatrix.ru].t7923.torrent 
Торрент: Зарегистрирован [ 2015-10-14 02:42 ] · 485B7AE4EEC3310BD7F9C946D6CE94170393F413

Скачать .torrent

Скачать

14 KB

Статус: проверено
Скачан: 0 раз
Размер: 648 MB
terms.php



Быстрый ответ

Имя:

      
Для отправки сообщений необходимо включить JavaScript
Показать сообщения:    

Текущее время: 05-Дек 03:29

Часовой пояс: UTC + 3


Вы можете начинать темы
Вы можете отвечать на сообщения
Вы не можете редактировать свои сообщения
Вы не можете удалять свои сообщения
Вы не можете голосовать в опросах
Вы не можете прикреплять файлы к сообщениям
Вы можете скачивать файлы