(Baroque Oratorio [Pasticcio]) Handel - Nabal (Boog, van der Heijden, Perillo, Schoch - Frankfurt Baroque Orchestra, Martini) 2002 APE (image+.cue) lossless


Статистика раздачи [Обновить пиров]
Размер:  618 MB   |    Зарегистрирован:  1 год 1 месяц   |    Скачан:  0 раз

Полного источника не было: Никогда

 
   
 
 
 

[Цитировать]

George Frederic Handel (1685-1759) - Nabal
Жанр: Baroque Oratorio [Pasticcio]
Страна-производитель диска: EU
Год издания диска: 2002
Издатель (лейбл): Naxos
Номер по каталогу: 8.555276-77
Дата записи: 2000
Аудиокодек: APE
Тип рипа: image+.cue
Битрейт аудио: lossless
Продолжительность: 66'52 + 66'08
Источник: собственный рип
Наличие сканов в содержимом раздачи: да
Треклист:

CD1

1. Symphonia - Largo, Allegro, Largo, Minuet
2. Recitative - Here In The Wilderness Of Paran
2. Chorus - The Righteous Shall Be Had In Everlasting Remembrance
4. Accompagnato - Have Mercy On Us, Lord
5. Air - Food They Ask'd
6. Recitative - No Doubt
7. Air - The Lord, Our Guide
8. Chorus - The Lord, Our Guide
9. Recitative - How Hard The Woman's Fate
10. Air - Free From Discord
11. Recitative - Avaunt, Unpleasing Wretch
12. Air - Still Fill The Bowl
13. Ballo And Minuet
14. Gavotte
15. Siciliana
16. Air - Gay And Light As Yonder Sheep
17. Chorus - Gay And Light As Yonder Sheep
18. Recitative - 'Tis Carmel's Annual Holiday
19. Chorus - Happy, While We Reign In Pleasure
20. Recitative - Asaph, 'Tis Well Advis'd
21. Air - Great Creator
22. Chorus - God, Who In Thy Heav'nly Hand
23. Recitative And Accompagnato - Thus Saith My Lord
24. Air - Graceful Hearts Enjoy The Blessing
25. Recitative - Who Is This David?
26. Air - With Harps New Strung
27. Solo And Chorus - Come! Come! Live With Pleasure
28. Air And Chorus - Sing We The Feast
29. Chorus - Crown With The Festal Pomp The Day

CD2

1. Accompagnato - Thrice happy sheep
2. Air - Mind eternal
2. Recitative - Fly my good mistress
4. Accompagnato - Fell monster!
5. Air - Fury in all thy terrors rise
6. Accompagnato - On me, my Lord, on me
7. Air - Mercy thou heavn'ly cherub
8. Accompagnato - Blessed by the Lord
9. Chorus - All creatures upon God depend
10. Interludes - Entree, Entree des Songes agreables, etc
11. Accompagnato - Ah! Whence this sudden dread
12. Air - Oh! Who can tell the terrors
13. Recitative - How soon the scene is chang'd
14. Chorus - By slow degrees the wrath of God
15. Recitative - A messenger, my Lord
16. Air - When beauty sorrow's livery wears
17. Recitative - True is your observation
18. Air - Lovely beauty
19. Recitative - Behold! Thine handmaid
20. Air - Come ye smiling hours
21. Accompagnato - Guardian angels
22. Duet - Thrice happy pair
23. Solo and Chorus - Still caressing
24. Recitative - In praise, to great Jehovah
25. Duet - Thoughts sublime
26. Chorus - O glorious prince
Исполнители:
George Frederic Handel (1685-1759) - Nabal
Oratorio in three acts compiled by John Christopher Smith
Maya Boog, soprano
Francine van der Heijden, soprano
Linda Perillo, soprano
Knut Schoch, tenor
Stephan MacLeod, bass
Junge Kantorei
Frankfurt Baroque Orchestra
Joachim Carlos Martini

Лог создания рипа

CD1

Exact Audio Copy V1.0 beta 3 from 29. August 2011
EAC extraction logfile from 26. July 2014, 19:08
Handel / Nabal, Martini CD1
Used drive : HL-DT-STDVDRAM GH22NS50 Adapter: 0 ID: 2
Read mode : Secure
Utilize accurate stream : Yes
Defeat audio cache : Yes
Make use of C2 pointers : No
Read offset correction : 667
Overread into Lead-In and Lead-Out : No
Fill up missing offset samples with silence : Yes
Delete leading and trailing silent blocks : No
Null samples used in CRC calculations : Yes
Used interface : Native Win32 interface for Win NT & 2000
Used output format : Monkey's Audio Lossless Encoder
Selected bitrate : High Lossless Compression
Quality : High
Add ID3 tag : No
Command line compressor : C:\Program Files (x86)\Exact Audio Copy\MAC\MAC.exe
TOC of the extracted CD
Track | Start | Length | Start sector | End sector
---------------------------------------------------------
1 | 0:00.00 | 4:27.05 | 0 | 20029
2 | 4:27.05 | 0:34.52 | 20030 | 22631
3 | 5:01.57 | 8:11.43 | 22632 | 59499
4 | 13:13.25 | 0:41.05 | 59500 | 62579
5 | 13:54.30 | 2:38.27 | 62580 | 74456
6 | 16:32.57 | 0:28.13 | 74457 | 76569
7 | 17:00.70 | 4:43.00 | 76570 | 97794
8 | 21:43.70 | 1:38.35 | 97795 | 105179
9 | 23:22.30 | 0:36.67 | 105180 | 107946
10 | 23:59.22 | 2:03.25 | 107947 | 117196
11 | 26:02.47 | 0:37.60 | 117197 | 120031
12 | 26:40.32 | 3:33.28 | 120032 | 136034
13 | 30:13.60 | 2:08.17 | 136035 | 145651
14 | 32:22.02 | 1:17.28 | 145652 | 151454
15 | 33:39.30 | 0:50.55 | 151455 | 155259
16 | 34:30.10 | 3:41.25 | 155260 | 171859
17 | 38:11.35 | 0:59.32 | 171860 | 176316
18 | 39:10.67 | 0:24.60 | 176317 | 178176
19 | 39:35.52 | 2:04.38 | 178177 | 187514
20 | 41:40.15 | 1:03.27 | 187515 | 192266
21 | 42:43.42 | 1:54.18 | 192267 | 200834
22 | 44:37.60 | 3:50.15 | 200835 | 218099
23 | 48:28.00 | 1:42.37 | 218100 | 225786
24 | 50:10.37 | 3:20.28 | 225787 | 240814
25 | 53:30.65 | 0:38.10 | 240815 | 243674
26 | 54:09.00 | 1:08.65 | 243675 | 248839
27 | 55:17.65 | 1:50.42 | 248840 | 257131
28 | 57:08.32 | 6:38.03 | 257132 | 286984
29 | 63:46.35 | 3:05.40 | 286985 | 300899
Range status and errors
Selected range
Filename D:\EAC\Handel - Nabal, Martini CD1.wav
Peak level 100.0 %
Extraction speed 2.0 X
Range quality 100.0 %
Test CRC EB4A1445
Copy CRC EB4A1445
Copy OK
No errors occurred
AccurateRip summary
Track 1 accurately ripped (confidence 5) [66371D98] (AR v2)
Track 2 accurately ripped (confidence 5) [BC74F32C] (AR v2)
Track 3 accurately ripped (confidence 5) [686006DE] (AR v2)
Track 4 accurately ripped (confidence 5) [A4F541D8] (AR v2)
Track 5 accurately ripped (confidence 5) [38108F5B] (AR v2)
Track 6 accurately ripped (confidence 5) [887B295F] (AR v2)
Track 7 accurately ripped (confidence 5) [01A7F71D] (AR v2)
Track 8 accurately ripped (confidence 5) [EFCBE140] (AR v2)
Track 9 accurately ripped (confidence 5) [96CCD8F9] (AR v2)
Track 10 accurately ripped (confidence 5) [7405D94B] (AR v2)
Track 11 accurately ripped (confidence 5) [F9F6190F] (AR v2)
Track 12 accurately ripped (confidence 5) [A3CF969A] (AR v2)
Track 13 accurately ripped (confidence 5) [FA0BBC22] (AR v2)
Track 14 accurately ripped (confidence 5) [74369DF9] (AR v2)
Track 15 accurately ripped (confidence 5) [0BB24D6B] (AR v2)
Track 16 accurately ripped (confidence 5) [10C0D406] (AR v2)
Track 17 accurately ripped (confidence 5) [CF758987] (AR v2)
Track 18 accurately ripped (confidence 5) [41E26F20] (AR v2)
Track 19 accurately ripped (confidence 5) [8D094676] (AR v2)
Track 20 accurately ripped (confidence 5) [1D79E920] (AR v2)
Track 21 accurately ripped (confidence 5) [B2BBB6AF] (AR v2)
Track 22 accurately ripped (confidence 5) [52412662] (AR v2)
Track 23 accurately ripped (confidence 5) [B90157ED] (AR v2)
Track 24 accurately ripped (confidence 5) [E9922B2C] (AR v2)
Track 25 accurately ripped (confidence 5) [04007040] (AR v2)
Track 26 accurately ripped (confidence 5) [EBE42D6A] (AR v2)
Track 27 accurately ripped (confidence 5) [6824DA14] (AR v2)
Track 28 accurately ripped (confidence 5) [21B67D52] (AR v2)
Track 29 accurately ripped (confidence 5) [5B113098] (AR v2)
All tracks accurately ripped
End of status report
---- CUETools DB Plugin V2.1.3
[CTDB TOCID: dM4Q.ITHwk6kWPcn8TIIIoiNRzI-] found, Submit result: dM4Q.ITHwk6kWPcn8TIIIoiNRzI- has been confirmed
[7cce9abc] (5/5) Accurately ripped
==== Log checksum 398D8529042FE2CF063DEB02E8D0631CF2E5A95766FD7ED052417E9D01253669 ====

CD2

Exact Audio Copy V1.0 beta 3 from 29. August 2011
EAC extraction logfile from 26. July 2014, 18:47
Handel / Nabal, Martini CD2
Used drive : TSSTcorpCDDVDW SE-208AB Adapter: 1 ID: 0
Read mode : Secure
Utilize accurate stream : Yes
Defeat audio cache : Yes
Make use of C2 pointers : No
Read offset correction : 6
Overread into Lead-In and Lead-Out : No
Fill up missing offset samples with silence : Yes
Delete leading and trailing silent blocks : No
Null samples used in CRC calculations : Yes
Used interface : Native Win32 interface for Win NT & 2000
Used output format : Monkey's Audio Lossless Encoder
Selected bitrate : High Lossless Compression
Quality : High
Add ID3 tag : No
Command line compressor : C:\Program Files (x86)\Exact Audio Copy\MAC\MAC.exe
TOC of the extracted CD
Track | Start | Length | Start sector | End sector
---------------------------------------------------------
1 | 0:00.00 | 1:22.57 | 0 | 6206
2 | 1:22.57 | 3:23.63 | 6207 | 21494
3 | 4:46.45 | 0:59.17 | 21495 | 25936
4 | 5:45.62 | 0:28.05 | 25937 | 28041
5 | 6:13.67 | 4:12.65 | 28042 | 47006
6 | 10:26.57 | 1:47.33 | 47007 | 55064
7 | 12:14.15 | 2:20.30 | 55065 | 65594
8 | 14:34.45 | 1:04.67 | 65595 | 70461
9 | 15:39.37 | 3:51.05 | 70462 | 87791
10 | 19:30.42 | 4:24.70 | 87792 | 107661
11 | 23:55.37 | 1:19.50 | 107662 | 113636
12 | 25:15.12 | 4:09.65 | 113637 | 132376
13 | 29:25.02 | 0:39.25 | 132377 | 135326
14 | 30:04.27 | 4:12.03 | 135327 | 154229
15 | 34:16.30 | 1:13.42 | 154230 | 159746
16 | 35:29.72 | 2:12.28 | 159747 | 169674
17 | 37:42.25 | 0:24.42 | 169675 | 171516
18 | 38:06.67 | 6:41.20 | 171517 | 201611
19 | 44:48.12 | 0:59.58 | 201612 | 206094
20 | 45:47.70 | 4:49.15 | 206095 | 227784
21 | 50:37.10 | 0:27.25 | 227785 | 229834
22 | 51:04.35 | 4:32.60 | 229835 | 250294
23 | 55:37.20 | 2:34.37 | 250295 | 261881
24 | 58:11.57 | 0:19.70 | 261882 | 263376
25 | 58:31.52 | 2:24.53 | 263377 | 274229
26 | 60:56.30 | 5:11.45 | 274230 | 297599
Range status and errors
Selected range
Filename D:\EAC\Handel - Nabal, Martini CD2.wav
Peak level 100.0 %
Extraction speed 3.0 X
Range quality 100.0 %
Test CRC 7555729C
Copy CRC 7555729C
Copy OK
No errors occurred
AccurateRip summary
Track 1 cannot be verified as accurate (confidence 3) [24D51E01], AccurateRip returned [AE53257F] (AR v2)
Track 2 cannot be verified as accurate (confidence 3) [FBB374BF], AccurateRip returned [1A6C5096] (AR v2)
Track 3 cannot be verified as accurate (confidence 3) [D4DD77C1], AccurateRip returned [BC24C4EA] (AR v2)
Track 4 cannot be verified as accurate (confidence 3) [E1D5A102], AccurateRip returned [F189C3C2] (AR v2)
Track 5 cannot be verified as accurate (confidence 3) [778491F6], AccurateRip returned [B5BF276A] (AR v2)
Track 6 cannot be verified as accurate (confidence 3) [99136C12], AccurateRip returned [87AD476F] (AR v2)
Track 7 cannot be verified as accurate (confidence 3) [DB906165], AccurateRip returned [31A37E31] (AR v2)
Track 8 cannot be verified as accurate (confidence 3) [A58A192F], AccurateRip returned [A5849D6B] (AR v2)
Track 9 cannot be verified as accurate (confidence 3) [E5E851EF], AccurateRip returned [516720BA] (AR v2)
Track 10 cannot be verified as accurate (confidence 3) [2A1A9126], AccurateRip returned [A2773221] (AR v2)
Track 11 cannot be verified as accurate (confidence 3) [E1415584], AccurateRip returned [6E929F5E] (AR v2)
Track 12 cannot be verified as accurate (confidence 3) [6C714799], AccurateRip returned [571E744F] (AR v2)
Track 13 cannot be verified as accurate (confidence 3) [9D5544C3], AccurateRip returned [DCB9FB0F] (AR v2)
Track 14 cannot be verified as accurate (confidence 3) [ECC993EF], AccurateRip returned [E77BDEBE] (AR v2)
Track 15 cannot be verified as accurate (confidence 3) [6A3611C3], AccurateRip returned [925F1308] (AR v2)
Track 16 cannot be verified as accurate (confidence 3) [A0282AD9], AccurateRip returned [D4F81FAC] (AR v2)
Track 17 cannot be verified as accurate (confidence 3) [56492D23], AccurateRip returned [9EC3EA05] (AR v2)
Track 18 cannot be verified as accurate (confidence 3) [4DFFD768], AccurateRip returned [76D55976] (AR v2)
Track 19 cannot be verified as accurate (confidence 3) [27CFDD2E], AccurateRip returned [55C14357] (AR v2)
Track 20 cannot be verified as accurate (confidence 3) [A91A0C50], AccurateRip returned [9C3F91BD] (AR v2)
Track 21 cannot be verified as accurate (confidence 3) [03FC1FB2], AccurateRip returned [2797E0A8] (AR v2)
Track 22 cannot be verified as accurate (confidence 3) [7FC210A7], AccurateRip returned [1088C5EA] (AR v2)
Track 23 cannot be verified as accurate (confidence 3) [BC967573], AccurateRip returned [3DBEDBC4] (AR v2)
Track 24 cannot be verified as accurate (confidence 3) [07ECA793], AccurateRip returned [99964FF7] (AR v2)
Track 25 cannot be verified as accurate (confidence 3) [ADF9CC38], AccurateRip returned [633CBE0D] (AR v2)
Track 26 cannot be verified as accurate (confidence 3) [4D3B05E5], AccurateRip returned [ADAA0A96] (AR v2)
No tracks could be verified as accurate
You may have a different pressing from the one(s) in the database
End of status report
---- CUETools DB Plugin V2.1.3
[CTDB TOCID: e4B9UlJ.22W27LyLmZMjcBd3ut8-] found, Submit result: e4B9UlJ.22W27LyLmZMjcBd3ut8- has been confirmed
[583e9468] (1/6) No match
[a45b404e] (5/6) Accurately ripped
==== Log checksum 6029899242B10E45211DC07E620C03D8FF2160EA8ED3DD5DCEB8A6E66F69F9A1 ====

Содержание индексной карты (.CUE)

CD1

REM GENRE Oratorio
REM DATE 2000
REM DISCID 770FAC1D
REM COMMENT "ExactAudioCopy v1.0b3"
PERFORMER "Handel"
TITLE "Nabal, Martini CD1"
FILE "Handel - Nabal, Martini CD1.ape" WAVE
TRACK 01 AUDIO
TITLE "Symphonia - Largo, Allegro, Largo, Minuet"
PERFORMER "Handel"
ISRC HKI190139401
INDEX 01 00:00:00
TRACK 02 AUDIO
TITLE "Recitative - Here In The Wilderness Of Paran"
PERFORMER "Handel"
ISRC HKI190139402
INDEX 01 04:27:05
TRACK 03 AUDIO
TITLE "Chorus - The Righteous Shall Be Had In Everlasting Remembrance"
PERFORMER "Handel"
ISRC HKI190139403
INDEX 01 05:01:57
TRACK 04 AUDIO
TITLE "Accompagnato - Have Mercy On Us, Lord"
PERFORMER "Handel"
ISRC HKI190139404
INDEX 01 13:13:25
TRACK 05 AUDIO
TITLE "Air - Food They Ask'd"
PERFORMER "Handel"
ISRC HKI190139405
INDEX 01 13:54:30
TRACK 06 AUDIO
TITLE "Recitative - No Doubt"
PERFORMER "Handel"
ISRC HKI190139406
INDEX 01 16:32:57
TRACK 07 AUDIO
TITLE "Air - The Lord, Our Guide"
PERFORMER "Handel"
ISRC HKI190139407
INDEX 01 17:00:70
TRACK 08 AUDIO
TITLE "Chorus - The Lord, Our Guide"
PERFORMER "Handel"
ISRC HKI190139408
INDEX 01 21:43:70
TRACK 09 AUDIO
TITLE "Recitative - How Hard The Woman's Fate"
PERFORMER "Handel"
ISRC HKI190139409
INDEX 01 23:22:30
TRACK 10 AUDIO
TITLE "Air - Free From Discord"
PERFORMER "Handel"
ISRC HKI190139410
INDEX 01 23:59:22
TRACK 11 AUDIO
TITLE "Recitative - Avaunt, Unpleasing Wretch"
PERFORMER "Handel"
ISRC HKI190139411
INDEX 01 26:02:47
TRACK 12 AUDIO
TITLE "Air - Still Fill The Bowl"
PERFORMER "Handel"
ISRC HKI190139412
INDEX 01 26:40:32
TRACK 13 AUDIO
TITLE "Ballo And Minuet"
PERFORMER "Handel"
ISRC HKI190139413
INDEX 01 30:13:60
TRACK 14 AUDIO
TITLE "Gavotte"
PERFORMER "Handel"
ISRC HKI190139414
INDEX 01 32:22:02
TRACK 15 AUDIO
TITLE "Siciliana"
PERFORMER "Handel"
INDEX 01 33:39:30
TRACK 16 AUDIO
TITLE "Air - Gay And Light As Yonder Sheep"
PERFORMER "Handel"
ISRC HKI190139416
INDEX 01 34:30:10
TRACK 17 AUDIO
TITLE "Chorus - Gay And Light As Yonder Sheep"
PERFORMER "Handel"
ISRC HKI190139417
INDEX 01 38:11:35
TRACK 18 AUDIO
TITLE "Recitative - 'Tis Carmel's Annual Holiday"
PERFORMER "Handel"
ISRC HKI190139418
INDEX 01 39:10:67
TRACK 19 AUDIO
TITLE "Chorus - Happy, While We Reign In Pleasure"
PERFORMER "Handel"
ISRC HKI190139419
INDEX 01 39:35:52
TRACK 20 AUDIO
TITLE "Recitative - Asaph, 'Tis Well Advis'd"
PERFORMER "Handel"
ISRC HKI190139420
INDEX 00 41:35:07
INDEX 01 41:40:15
TRACK 21 AUDIO
TITLE "Air - Great Creator"
PERFORMER "Handel"
ISRC HKI190139421
INDEX 01 42:43:42
TRACK 22 AUDIO
TITLE "Chorus - God, Who In Thy Heav'nly Hand"
PERFORMER "Handel"
ISRC HKI190139422
INDEX 01 44:37:60
TRACK 23 AUDIO
TITLE "Recitative And Accompagnato - Thus Saith My Lord"
PERFORMER "Handel"
ISRC HKI190139423
INDEX 01 48:28:00
TRACK 24 AUDIO
TITLE "Air - Graceful Hearts Enjoy The Blessing"
PERFORMER "Handel"
INDEX 01 50:10:37
TRACK 25 AUDIO
TITLE "Recitative - Who Is This David?"
PERFORMER "Handel"
ISRC HKI190139425
INDEX 01 53:30:65
TRACK 26 AUDIO
TITLE "Air - With Harps New Strung"
PERFORMER "Handel"
ISRC HKI190139426
INDEX 01 54:09:00
TRACK 27 AUDIO
TITLE "Solo And Chorus - Come! Come! Live With Pleasure"
PERFORMER "Handel"
ISRC HKI190139427
INDEX 00 55:03:30
INDEX 01 55:17:65
TRACK 28 AUDIO
TITLE "Air And Chorus - Sing We The Feast"
PERFORMER "Handel"
ISRC HKI190139428
INDEX 01 57:08:32
TRACK 29 AUDIO
TITLE "Chorus - Crown With The Festal Pomp The Day"
PERFORMER "Handel"
ISRC HKI190139429
INDEX 01 63:46:35

CD2

REM GENRE Oratorio
REM DATE 2000
REM DISCID 910F801A
REM COMMENT "ExactAudioCopy v1.0b3"
PERFORMER "Handel"
TITLE "Nabal, Martini CD2"
FILE "Handel - Nabal, Martini CD2.ape" WAVE
TRACK 01 AUDIO
TITLE "Accompagnato - Thrice happy sheep"
PERFORMER "Handel"
ISRC HKI190139501
INDEX 01 00:00:00
TRACK 02 AUDIO
TITLE "Air - Mind eternal"
PERFORMER "Handel"
ISRC HKI190139502
INDEX 01 01:22:57
TRACK 03 AUDIO
TITLE "Recitative - Fly my good mistress"
PERFORMER "Handel"
ISRC HKI190139503
INDEX 01 04:46:45
TRACK 04 AUDIO
TITLE "Accompagnato - Fell monster!"
PERFORMER "Handel"
ISRC HKI190139504
INDEX 01 05:45:62
TRACK 05 AUDIO
TITLE "Air - Fury in all thy terrors rise"
PERFORMER "Handel"
ISRC HKI190139505
INDEX 01 06:13:67
TRACK 06 AUDIO
TITLE "Accompagnato - On me, my Lord, on me"
PERFORMER "Handel"
ISRC HKI190139506
INDEX 01 10:26:57
TRACK 07 AUDIO
TITLE "Air - Mercy thou heavn'ly cherub"
PERFORMER "Handel"
ISRC HKI190139507
INDEX 01 12:14:15
TRACK 08 AUDIO
TITLE " Accompagnato - Blessed by the Lord"
PERFORMER "Handel"
ISRC HKI190139508
INDEX 01 14:34:45
TRACK 09 AUDIO
TITLE "Chorus - All creatures upon God depend"
PERFORMER "Handel"
ISRC HKI190139509
INDEX 01 15:39:37
TRACK 10 AUDIO
TITLE " Interludes - Entree, Entree des Songes agreables, etc"
PERFORMER "Handel"
ISRC HKI190139510
INDEX 00 19:26:15
INDEX 01 19:30:42
TRACK 11 AUDIO
TITLE "Accompagnato - Ah! Whence this sudden dread"
PERFORMER "Handel"
ISRC HKI190139511
INDEX 01 23:55:37
TRACK 12 AUDIO
TITLE "Air - Oh! Who can tell the terrors"
PERFORMER "Handel"
ISRC HKI190139512
INDEX 01 25:15:12
TRACK 13 AUDIO
TITLE "Recitative - How soon the scene is chang'd"
PERFORMER "Handel"
ISRC HKI190139513
INDEX 01 29:25:02
TRACK 14 AUDIO
TITLE "Chorus - By slow degrees the wrath of God"
PERFORMER "Handel"
ISRC HKI190139514
INDEX 01 30:04:27
TRACK 15 AUDIO
TITLE "Recitative - A messenger, my Lord"
PERFORMER "Handel"
ISRC HKI190139515
INDEX 01 34:16:30
TRACK 16 AUDIO
TITLE "Air - When beauty sorrow's livery wears"
PERFORMER "Handel"
ISRC HKI190139515
INDEX 01 35:29:72
TRACK 17 AUDIO
TITLE "Recitative - True is your observation"
PERFORMER "Handel"
ISRC HKI190139517
INDEX 01 37:42:25
TRACK 18 AUDIO
TITLE "Air - Lovely beauty"
PERFORMER "Handel"
ISRC HKI190139518
INDEX 01 38:06:67
TRACK 19 AUDIO
TITLE "Recitative - Behold! Thine handmaid"
PERFORMER "Handel"
ISRC HKI190139519
INDEX 01 44:48:12
TRACK 20 AUDIO
TITLE "Air - Come ye smiling hours"
PERFORMER "Handel"
ISRC HKI190139520
INDEX 01 45:47:70
TRACK 21 AUDIO
TITLE "Accompagnato - Guardian angels"
PERFORMER "Handel"
ISRC HKI190139521
INDEX 01 50:37:10
TRACK 22 AUDIO
TITLE "Duet - Thrice happy pair"
PERFORMER "Handel"
ISRC HKI190139522
INDEX 01 51:04:35
TRACK 23 AUDIO
TITLE "Solo and Chorus - Still caressing"
PERFORMER "Handel"
ISRC HKI190139523
INDEX 01 55:37:20
TRACK 24 AUDIO
TITLE "Recitative - In praise, to great Jehovah"
PERFORMER "Handel"
ISRC HKI190139524
INDEX 01 58:11:57
TRACK 25 AUDIO
TITLE "Duet - Thoughts sublime"
PERFORMER "Handel"
ISRC HKI190139525
INDEX 01 58:31:52
TRACK 26 AUDIO
TITLE "Chorus - O glorious prince"
PERFORMER "Handel"
ISRC HKI190139526
INDEX 01 60:56:30
Наслаждайтесь!!
[teatrix.ru].t7924.torrent 
Торрент: Зарегистрирован [ 2015-10-14 02:42 ] · C5504A3CFC870ACA3653AA64E49359D5EC2BDA96

Скачать .torrent

Скачать

13 KB

Статус: проверено
Скачан: 0 раз
Размер: 618 MB
terms.php



Быстрый ответ

Имя:

      
Для отправки сообщений необходимо включить JavaScript
Показать сообщения:    

Текущее время: 07-Дек 21:20

Часовой пояс: UTC + 3


Вы можете начинать темы
Вы можете отвечать на сообщения
Вы не можете редактировать свои сообщения
Вы не можете удалять свои сообщения
Вы не можете голосовать в опросах
Вы не можете прикреплять файлы к сообщениям
Вы можете скачивать файлы