(Choral) Karl Jenkins - Motets (Polyphony, Stephen Layton) - 2014, FLAC (image+.cue) lossless


Статистика раздачи [Обновить пиров]
Размер:  290 MB   |    Зарегистрирован:  1 год 1 месяц   |    Скачан:  0 раз

Полного источника не было: Никогда

 
   
 
 
 

[Цитировать]

Karl Jenkins - Motets (Polyphony, Stephen Layton) Жанр: Choral
Страна-производитель диска: E.U.
Год издания диска: 2014
Издатель (лейбл): Deutsche Grammophon GmbH
Номер по каталогу: 479 3232
Дата записи: 14-16.01.2014
Аудиокодек: FLAC
Тип рипа: image+.cue
Битрейт аудио: lossless
Продолжительность: 01:14:07
Источник: JVA
Наличие сканов в содержимом раздачи: да
Треклист:
01. I'll make music 04:39
02. Contate Domino 02:40
03. Laudamus te 04:52
04. Benedictus 04:02
05. The Shepherd 02:53
06. Ave Maria 04:07
07. Ave verum corpus 04:23
08. Agnus Dei 04:01
09. Healing Light 03:04
10. Locus iste 02:47
11. Pie Jesu 03:08
12. Exsultate, jubilate 04:20
13. God shall wipe away all tears 02:08
14. And the Mother did weep 05:47
15. Lullay 04:05
16. Peace, peace! 04:06
17. In paradisum 04:15
18. Dona nobis pacem 04:23
19. Nunc dimittis 04:18
Исполнители:
Polyphony, Stephen Layton

Лог создания рипа

Exact Audio Copy V0.99 prebeta 5 from 4. May 2009
Отчёт EAC об извлечении, выполненном 23. июня 2014, 20:06
Polyphony , Stephen Layton / Karl Jenkins - motets
Дисковод: _NEC DVD_RW ND-4571A Adapter: 0 ID: 0
Режим чтения : ДостоверностьИспользование точного потока : ДаОтключение кэша аудио : ДаИспользование указателей C2 : Нет
Коррекция смещения при чтении : 48Способность читать области Lead-in и Lead-out : НетЗаполнение пропущенных сэмплов тишиной : ДаУдаление блоков с тишиной в начале и конце : НетПри вычислениях CRC использовались нулевые сэмплы : ДаИнтерфейс : Встроенный Win32-интерфейс для Win NT/2000
Выходной формат : Пользовательский кодировщикВыбранный битрейт : 768 kBit/sКачество : ВысокийДобавление ID3-тэга : НетУтилита сжатия : C:\Program Files\Exact Audio Copy\Flac\flac.exeДополнительные параметры : -6 -V -T "ARTIST=%a" -T "TITLE=%t" -T "ALBUM=%g" -T "DATE=%y" -T "TRACKNUMBER=%n" -T "GENRE=%m" -T "COMMENT=%e" %s -o %d
TOC извлечённого CD
Трек | Старт | Длительность | Начальный сектор | Конечный сектор --------------------------------------------------------------------- 1 | 0:00.00 | 4:39.51 | 0 | 20975 2 | 4:39.51 | 2:40.25 | 20976 | 33000 3 | 7:20.01 | 4:52.20 | 33001 | 54920 4 | 12:12.21 | 4:02.44 | 54921 | 73114 5 | 16:14.65 | 2:53.53 | 73115 | 86142 6 | 19:08.43 | 4:07.50 | 86143 | 104717 7 | 23:16.18 | 4:23.37 | 104718 | 124479 8 | 27:39.55 | 4:01.29 | 124480 | 142583 9 | 31:41.09 | 3:04.73 | 142584 | 156456 10 | 34:46.07 | 2:47.49 | 156457 | 169030 11 | 37:33.56 | 3:08.25 | 169031 | 183155 12 | 40:42.06 | 4:20.01 | 183156 | 202656 13 | 45:02.07 | 2:08.14 | 202657 | 212270 14 | 47:10.21 | 5:47.17 | 212271 | 238312 15 | 52:57.38 | 4:05.46 | 238313 | 256733 16 | 57:03.09 | 4:06.39 | 256734 | 275222 17 | 61:09.48 | 4:15.26 | 275223 | 294373 18 | 65:24.74 | 4:23.46 | 294374 | 314144 19 | 69:48.45 | 4:18.61 | 314145 | 333555
Характеристики диапазона извлечения и сообщения об ошибках
Выбранный диапазон
Имя файла D:\EAC\Karl Jenkins - motets\Karl Jenkins - motets.wav
Пиковый уровень 98.9 % Качество диапазона 99.9 % CRC копии B28A6EBB Копирование... OK
Ошибок не произошло
AccurateRip: сводка
Трек 1 нет в базе данныхТрек 2 нет в базе данныхТрек 3 нет в базе данныхТрек 4 нет в базе данныхТрек 5 нет в базе данныхТрек 6 нет в базе данныхТрек 7 нет в базе данныхТрек 8 нет в базе данныхТрек 9 нет в базе данныхТрек 10 нет в базе данныхТрек 11 нет в базе данныхТрек 12 нет в базе данныхТрек 13 нет в базе данныхТрек 14 нет в базе данныхТрек 15 нет в базе данныхТрек 16 нет в базе данныхТрек 17 нет в базе данныхТрек 18 нет в базе данныхТрек 19 нет в базе данных
Ни одного трека нет в базе AccurateRip
Конец отчёта

Лог проверки качества

Скриншот спектра частот

[teatrix.ru].t7925.torrent 
Торрент: Зарегистрирован [ 2015-10-14 02:42 ] · DBA610074FD1BAE4620BAF44FA961DF6573B7A35

Скачать .torrent

Скачать

12 KB

Статус: проверено
Скачан: 0 раз
Размер: 290 MB
terms.php



Быстрый ответ

Имя:

      
Для отправки сообщений необходимо включить JavaScript
Показать сообщения:    

Текущее время: 10-Дек 23:31

Часовой пояс: UTC + 3


Вы можете начинать темы
Вы можете отвечать на сообщения
Вы не можете редактировать свои сообщения
Вы не можете удалять свои сообщения
Вы не можете голосовать в опросах
Вы не можете прикреплять файлы к сообщениям
Вы можете скачивать файлы