(Sacred baroque vocal) Handel – Dettingen Te Deum, Dettingen Anthem (Harry Christophers / Choir of Westminster Abbey, The English Concert, Simon Preston) - 1999, FLAC (image+.cue) lossless


Статистика раздачи [Обновить пиров]
Размер:  240 MB   |    Зарегистрирован:  1 год 1 месяц   |    Скачан:  0 раз

Полного источника не было: Никогда

 
   
 
 
 

[Цитировать]

Handel – Dettingen Te Deum, Dettingen Anthem – Simon Preston

Жанр: Sacred baroque vocal
Страна-производитель диска: Made in the E.U.
Год издания диска: 1999
Издатель (лейбл): Deutsche Grammophon GmbH / Archiv Produktion / Universal Music Company / 1984 Polydor International GmbH, Hamburg
Номер по каталогу: Pt0028946336625
Дата записи: 1984
Аудиокодек: FLAC
Тип рипа: image+.cue
Битрейт аудио: lossless
Продолжительность: 54'18
Источник: релизер
сайт-источник/ник/другое: Odeon
Наличие сканов в содержимом раздачи: да
Треклист:

скрытый текст

01. Dettingen Te Deum - We Praise Thee, O God [0:04:10.12]
02. All the Earth Doth Worship Thee [0:02:35.63]
03. Thee All Angels Cry Aloud [0:02:17.10]
04. To Thee Cherubim and Seraphim [0:03:12.27]
05. The Glorious Company of Th' Apostels [0:01:35.63]
06. Thine Honourable, True, and Only Son [0:00:40.12]
07. Thou Art the King Od Glory [0:02:35.50]
08. When Thou Tookest Upon Thee [0:03:37.48]
09. When Thou Hadst Overcome the Sharpness of Death [0:00:26.65]
10. Thou Didst Open the Kingdom of Heaven [0:01:35.50]
11. Thou Sittest At the Right Hand of God [0:03:40.25]
12. (Adagio) [0:00:40.00]
13. We Therefore Pray Thee [0:01:30.62]
14. Make Them to Be Number'd [0:01:42.38]
15. Day by Day We Magnify Thee [0:01:23.00]
16. And We Worship Thy Name [0:02:05.00]
17. Vouchsafe, O Lord [0:02:22.07]
18. O Lord, in Thee Have I Trusted [0:03:51.18]
19. Dettingen Anthem - The King Shall Rejoice [0:02:15.37]
20. His Honour Is Great [0:04:17.28]
21. Thou Shalt Give Him Everlasting Felicity [0:02:28.60]
22. And Why? Because the King Putteth His Trust in the Lord [0:02:58.37]
23. We Will Rejoice in Thy Salvaition [0:02:15.13]
Исполнители:

скрытый текст

George Frideric Handel (1685-1759):
The Dettingen Te Deum
The Dettingen Anthem

Trevor Pinnock - organ
Christopher Tipping - counter tenor
Harry Christophers - tenor
Stephen Varcoe - bass
Michael Pearce - bass
Choir of Westminster Abbey
The English Concert
Simon Preston - conductor

Лог создания рипа

Exact Audio Copy V1.0 beta 3 from 29. August 2011
EAC extraction logfile from 14. July 2014, 18:59
Trevor Pinnock / Handel - Dettingen Te Deum, Dettingen Anthem - Simon Preston
Used drive : TSSTcorpCDDVDW SH-222BB Adapter: 2 ID: 1
Read mode : SecureUtilize accurate stream : YesDefeat audio cache : YesMake use of C2 pointers : No
Read offset correction : 6Overread into Lead-In and Lead-Out : NoFill up missing offset samples with silence : YesDelete leading and trailing silent blocks : NoNull samples used in CRC calculations : YesUsed interface : Native Win32 interface for Win NT & 2000
Used output format : User Defined EncoderSelected bitrate : 896 kBit/sQuality : HighAdd ID3 tag : NoCommand line compressor : C:\Program Files\Exact Audio Copy\FLAC\FLAC.EXEAdditional command line options : -8 -V -T "TITLE=%title%" -T "ARTIST=%artist%" -T "ALBUMARTIST=%albumartist%" -T "ALBUM=%albumtitle%" -T "DATE=%year%" -T "TRACKNUMBER=%tracknr%" -T "TRACKTOTAL=%numtracks%" -T "GENRE=%genre%" -T "COMMENT=%comment%" -T "PERFORMER=%albuminterpret%" -T "COMPOSER=%composer%" %source% -o %dest%
TOC of the extracted CD
Track | Start | Length | Start sector | End sector --------------------------------------------------------- 1 | 0:00.33 | 4:10.12 | 33 | 18794 2 | 4:10.45 | 2:35.63 | 18795 | 30482 3 | 6:46.33 | 2:17.10 | 30483 | 40767 4 | 9:03.43 | 3:12.27 | 40768 | 55194 5 | 12:15.70 | 1:35.63 | 55195 | 62382 6 | 13:51.58 | 0:40.12 | 62383 | 65394 7 | 14:31.70 | 2:35.50 | 65395 | 77069 8 | 17:07.45 | 3:37.48 | 77070 | 93392 9 | 20:45.18 | 0:26.65 | 93393 | 95407 10 | 21:12.08 | 1:35.50 | 95408 | 102582 11 | 22:47.58 | 3:40.25 | 102583 | 119107 12 | 26:28.08 | 0:40.00 | 119108 | 122107 13 | 27:08.08 | 1:30.62 | 122108 | 128919 14 | 28:38.70 | 1:42.38 | 128920 | 136607 15 | 30:21.33 | 1:23.00 | 136608 | 142832 16 | 31:44.33 | 2:05.00 | 142833 | 152207 17 | 33:49.33 | 2:22.07 | 152208 | 162864 18 | 36:11.40 | 3:51.18 | 162865 | 180207 19 | 40:02.58 | 2:15.37 | 180208 | 190369 20 | 42:18.20 | 4:17.28 | 190370 | 209672 21 | 46:35.48 | 2:28.60 | 209673 | 220832 22 | 49:04.33 | 2:58.37 | 220833 | 234219 23 | 52:02.70 | 2:15.13 | 234220 | 244357
Range status and errors
Selected range
Filename G:\Ripped general\[dg.045] Handel – Dettingen Te Deum, Dettingen Anthem – Simon Preston\Handel - Dettingen Te Deum, Dettingen Anthem - Simon Preston.wav
Peak level 89.1 % Extraction speed 2.3 X Range quality 100.0 % Test CRC 84E4545E Copy CRC 84E4545E Copy OK
No errors occurred
AccurateRip summary
Track 1 accurately ripped (confidence 4) [247163F8] (AR v2)Track 2 accurately ripped (confidence 4) [999F73CC] (AR v2)Track 3 accurately ripped (confidence 4) [96E897E0] (AR v2)Track 4 accurately ripped (confidence 4) [6592801D] (AR v2)Track 5 accurately ripped (confidence 4) [E1C63E7B] (AR v2)Track 6 accurately ripped (confidence 4) [3273C7FD] (AR v2)Track 7 accurately ripped (confidence 4) [58BCD26C] (AR v2)Track 8 accurately ripped (confidence 4) [EE9C2314] (AR v2)Track 9 accurately ripped (confidence 4) [023C4A73] (AR v2)Track 10 accurately ripped (confidence 4) [970D5D1F] (AR v2)Track 11 accurately ripped (confidence 4) [E4C00359] (AR v2)Track 12 accurately ripped (confidence 4) [773790CE] (AR v2)Track 13 accurately ripped (confidence 4) [CD2151AB] (AR v2)Track 14 accurately ripped (confidence 4) [6410202B] (AR v2)Track 15 accurately ripped (confidence 4) [E43A2252] (AR v2)Track 16 accurately ripped (confidence 4) [A0DECAE3] (AR v2)Track 17 accurately ripped (confidence 4) [8B7AC783] (AR v2)Track 18 accurately ripped (confidence 4) [21017FFC] (AR v2)Track 19 accurately ripped (confidence 4) [46D3A0EA] (AR v2)Track 20 accurately ripped (confidence 4) [2F5EC171] (AR v2)Track 21 accurately ripped (confidence 4) [A82E0D3E] (AR v2)Track 22 accurately ripped (confidence 4) [88DC3F40] (AR v2)Track 23 accurately ripped (confidence 4) [7451872D] (AR v2)
All tracks accurately ripped
End of status report
==== Log checksum 056C952D29457736A9113E267D946AFB12F4329444C36EE5D5FB3EE118EEAFF7 ====
[teatrix.ru].t7926.torrent 
Торрент: Зарегистрирован [ 2015-10-14 02:42 ] · 089CB61C2FB52F00F6C2FE36948D8F903FF02AFB

Скачать .torrent

Скачать

20 KB

Статус: проверено
Скачан: 0 раз
Размер: 240 MB
terms.php



Быстрый ответ

Имя:

      
Для отправки сообщений необходимо включить JavaScript
Показать сообщения:    

Текущее время: 08-Дек 01:18

Часовой пояс: UTC + 3


Вы можете начинать темы
Вы можете отвечать на сообщения
Вы не можете редактировать свои сообщения
Вы не можете удалять свои сообщения
Вы не можете голосовать в опросах
Вы не можете прикреплять файлы к сообщениям
Вы можете скачивать файлы