(Classical, sacred) Mary and Elizabeth at Westminster Abbey: Tye, Mundy, Tallis, Sheppard, Byrd, White - The Choir of Westminster Abbey, James O\'Donnell - 2008, FLAC (image+.cue) lossless


Статистика раздачи [Обновить пиров]
Размер:  295 MB   |    Зарегистрирован:  1 год 1 месяц   |    Скачан:  0 раз

Полного источника не было: Никогда

 
   
 
 
 

[Цитировать]

Mary and Elizabeth at Westminster Abbey: Tye, Mundy, Tallis, Sheppard, Byrd, White - The Choir of Westminster Abbey, James O'Donnell
Жанр: Classical, sacred
Страна-производитель диска: UK
Год издания диска: 2008
Издатель (лейбл): Hyperion
Номер по каталогу: CDA67704
Дата записи: 2008
Аудиокодек: FLAC
Тип рипа: image+.cue
Битрейт аудио: lossless
Продолжительность: 66:42
Источник: собственный рип
Наличие сканов в содержимом раздачи: да
Треклист:
[1] Christopher Tye (c1505-?1572): Omnes gentes, plaudite manibus
[2] William Mundy (c1530-before 1591): Vox Patris caelestis
[3] Thomas Tallis (c1505-1585): Videte miraculum
[4] John Sheppard (c1515-1558): Libera nos, salva nos I
[5] John Sheppard: Second Service - 1. Magnificat
[6] John Sheppard: Second Service - 2. Nunc dimittis
[7] William Byrd (1539/40-1623): Teach me, O Lord
[8] William Byrd: Ne irascaris, Domine
[9] William Byrd: O Lord, make thy servant Elizabeth
[10] Robert White (c1538-1574): Exaudiat te Dominus
Исполнители:
The Choir of Westminster Abbey
James O'Donnell

Лог создания рипа

Exact Audio Copy V1.0 beta 3 from 29. August 2011
EAC extraction logfile from 12. July 2014, 1:16
The Choir of Westminster Abbey, James O'Donnell / Mary & Elizabeth at Westminster Abbey
Used drive : HL-DT-STDVDRAM GU70N Adapter: 0 ID: 0
Read mode : SecureUtilize accurate stream : YesDefeat audio cache : YesMake use of C2 pointers : No
Read offset correction : 48Overread into Lead-In and Lead-Out : NoFill up missing offset samples with silence : YesDelete leading and trailing silent blocks : NoNull samples used in CRC calculations : YesUsed interface : Native Win32 interface for Win NT & 2000
Used output format : User Defined EncoderSelected bitrate : 128 kBit/sQuality : HighAdd ID3 tag : NoCommand line compressor : C:\Program Files (x86)\Exact Audio Copy\Flac\flac.exeAdditional command line options : -V -8 -T "Date=%year%" -T "Genre=%genre%" %source%
TOC of the extracted CD
Track | Start | Length | Start sector | End sector --------------------------------------------------------- 1 | 0:00.00 | 4:22.42 | 0 | 19691 2 | 4:22.42 | 17:35.69 | 19692 | 98885 3 | 21:58.36 | 9:01.55 | 98886 | 139515 4 | 31:00.16 | 3:27.22 | 139516 | 155062 5 | 34:27.38 | 5:38.44 | 155063 | 180456 6 | 40:06.07 | 3:28.17 | 180457 | 196073 7 | 43:34.24 | 3:26.49 | 196074 | 211572 8 | 47:00.73 | 9:01.38 | 211573 | 252185 9 | 56:02.36 | 2:49.17 | 252186 | 264877 10 | 58:51.53 | 7:51.50 | 264878 | 300252
Range status and errors
Selected range
Filename C:\temp\CDA67704 - Mary and Elizabeth at Westminster Abbey\Mary & Elizabeth at Westminster Abbey.wav
Peak level 98.8 % Extraction speed 5.3 X Range quality 100.0 % Test CRC 7771DF67 Copy CRC 7771DF67 Copy OK
No errors occurred
AccurateRip summary
Track 1 accurately ripped (confidence 1) [C6FCB243] (AR v2)Track 2 accurately ripped (confidence 1) [3E6C5A8E] (AR v2)Track 3 accurately ripped (confidence 1) [38DA4500] (AR v2)Track 4 accurately ripped (confidence 1) [2DD1B913] (AR v2)Track 5 accurately ripped (confidence 1) [5866E2C0] (AR v2)Track 6 accurately ripped (confidence 1) [2BA9C49D] (AR v2)Track 7 accurately ripped (confidence 1) [5B0FE953] (AR v2)Track 8 accurately ripped (confidence 1) [BD661DE3] (AR v2)Track 9 accurately ripped (confidence 1) [237F6A11] (AR v2)Track 10 accurately ripped (confidence 1) [B73EF985] (AR v2)
All tracks accurately ripped
End of status report
==== Log checksum DCE069008C662892BE35D014E12481F2A422A65894276D5E3C029E5BA6A62903 ====
[teatrix.ru].t7927.torrent 
Торрент: Зарегистрирован [ 2015-10-14 02:42 ] · 7B7F648C9DF04B5BA2594180FB92A4653793F8BF

Скачать .torrent

Скачать

24 KB

Статус: проверено
Скачан: 0 раз
Размер: 295 MB
terms.php



Быстрый ответ

Имя:

      
Для отправки сообщений необходимо включить JavaScript
Показать сообщения:    

Текущее время: 04-Дек 02:49

Часовой пояс: UTC + 3


Вы можете начинать темы
Вы можете отвечать на сообщения
Вы не можете редактировать свои сообщения
Вы не можете удалять свои сообщения
Вы не можете голосовать в опросах
Вы не можете прикреплять файлы к сообщениям
Вы можете скачивать файлы