(Choral, Oratorio) George Frideric Handel - The Messiah (The Scholars Baroque Ensemble, David van Asch) - 1992, FLAC (image+.cue) lossless


Статистика раздачи [Обновить пиров]
Размер:  597 MB   |    Зарегистрирован:  1 год 1 месяц   |    Скачан:  0 раз

Полного источника не было: 4 месяца 17 дней

 
   
 
 
 

[Цитировать]

George Frideric Handel - The Messiah
The Scholars Baroque Ensemble
Жанр: Choral, Oratorio
Страна-производитель диска: Germany
Год издания диска: 1992
Издатель (лейбл): Naxos
Номер по каталогу: 8.550667-668
Дата записи: 1992
Аудиокодек: FLAC
Тип рипа: image+.cue
Битрейт аудио: lossless
Продолжительность: 2:21:30
Источник: собственный рип
Наличие сканов в содержимом раздачи: да (только обложки)--Исполнители:
The Scholars Baroque Ensemble
David van Asch - director-
-

Треклист

CD 1
1. Part I: Sinfonia 3:12
2. Recitative: Comfort ye my people (Tenor) 3:07
3. Aria: Every valley shall be exalted (Tenor) 3:34
4. And the glory of the Lord shall be revealed (Chorus) 2:38
5. Recitative: Thus saith the Lord (Bass) 1:24
6. Aria: But who may abide the day of His coming? (Counter-tenor) 3:06
7. And He shall purify the sons of Levi (Chorus) 2:28
8. Recitative: Behold, a virgin shall conceive (Alto) 0:25
9. Aria: O thou that tellest good tidings to Zion (Alto) 5:32
10. Recitative: For behold, darkness shall cover the earth (Bass) 2:41
11. Aria: The people that walked in darkness have seen a great light (Bass) 4:25
12. For unto a child is born (Chorus) 4:03
13. Pifa 0:55
14. Recitative: There were shepherds abiding in the field (Soprano) 1:21
15. Glory to God in the highest (Chorus) 1:54
16. Aria: Rejoice greatly, O daughter of Zion (Soprano) 4:04
17. Recitative: Then shall the eyes of the blind be opened (Alto) 0:20
18. Aria: He shall feed His flock like a shepherd (Alto) 5:12
19. His yoke is easy, His burthen is light (Chorus) 2:22
20. Part II: Behold the Lamb of God (Chorus) 2:51
21. Aria: He was despised and rejected of men (Alto) 11:10
22. Surely, He hath borne our griefs and carried our sorrows (Chorus) 2:05
23. And with His stripes we are healed (Chorus) 1:53
24. All we like sheep have gone astray (Chorus) 3:54
CD 2
1. Recitative: All they that see Him Laugh Him to scorn (Tenor) 0:44
2. He trusted in God that He would deliver Him (Chorus) 2:23
3. Recitative: Thy rebuke hath broken His heart (Tenor) 1:48
4. Arioso: Behold, and see if there be any sorrow like unto His sorrow! (Tenor) 1:34
5. Recitative: He was cut off out of the land of the living (Tenor) 0:18
6. Aria: But thou didst not leave His soul in Hell (Tenor) 2:41
7. Lift up your heads (Chorus) 3:04
8. Recitative: Unto which of the angels said He at any time (Tenor) 0:14
9. Let all the angels of God worship Him (Chorus) 1:28
10. Aria: Thou art gone up high (Counter-tenor) 3:16
11. The Lord gave the word (Chorus) 1:09
12. Duet: How beautiful are the feet of Him that bringeth glad tidings of salvation (Soprano, Counter-tenor) 3:22
13. Aria: Why do the nations so furiosly rage together (Bass) 3:08
14. Let us break their bonds asunder (Chorus) 1:49
15. Recitative: He that dwelleth in heaven shall laugh them to scorn (Tenor) 0:12
16. Aria: Thou shalt break them with a rod of iron (Tenor) 2:10
17. Hallelujah! (Chorus) 3:43
18. Part III: Aria: I know that my Redeemer liveth (Soprano) 6:07
19. Since by man came death (Chorus) 1:52
20. Recitative: Behold, I tell you a mystery (Bass) 0:32
21. Aria: The trumpet shall sound (Bass) 9:05
22. Recitative: Then shall be brought to pass the saying that is written (Counter-tenor) 0:17
23. Duet: O Death, where is thy sting (Counter-tenor, Tenor) 3:23
24. Aria: If God be for us, who can be against us? (Soprano) 4:57
25. Worthy is the Lamb that was slain (Chorus) 7:19

Лог создания рипа

Лог создания рипа CD 1

Exact Audio Copy V1.0 beta 3 from 29. August 2011
EAC extraction logfile from 23. December 2012, 19:16
The Scholars Baroque Ensemble / The Messiah CD1
Used drive : TSSTcorp CDDVDW Adapter: 0 ID: 0
Read mode : Secure
Utilize accurate stream : Yes
Defeat audio cache : Yes
Make use of C2 pointers : No
Read offset correction : 6
Overread into Lead-In and Lead-Out : No
Fill up missing offset samples with silence : Yes
Delete leading and trailing silent blocks : No
Null samples used in CRC calculations : Yes
Used interface : Installed external ASPI interface
Used output format : User Defined Encoder
Selected bitrate : 768 kBit/s
Quality : High
Add ID3 tag : No
Command line compressor : C:\Program Files (x86)\Exact Audio Copy\FLAC\FLAC.EXE
Additional command line options : -6 -V -T "ARTIST=%artist%" -T "TITLE=%title%" -T "ALBUM=%albumtitle%" -T "DATE=%year%" -T "TRACKNUMBER=%tracknr%" -T "GENRE=%genre%" -T "COMMENT=%comment%" -T "BAND=%albuminterpret%" -T "ALBUMARTIST=%albuminterpret%" -T "COMPOSER=%composer%" %haslyrics%--tag-from-file=LYRICS="%lyricsfile%"%haslyrics% -T "DISCNUMBER=%cdnumber%" -T "TOTALDISCS=%totalcds%" -T "TOTALTRACKS=%numtracks%" %hascover%--picture="%coverfile%"%hascover% %source% -o %dest%
TOC of the extracted CD
Track | Start | Length | Start sector | End sector
---------------------------------------------------------
1 | 0:00.00 | 3:12.62 | 0 | 14461
2 | 3:12.62 | 3:07.45 | 14462 | 28531
3 | 6:20.32 | 3:34.43 | 28532 | 44624
4 | 9:55.00 | 2:37.72 | 44625 | 56471
5 | 12:32.72 | 1:24.00 | 56472 | 62771
6 | 13:56.72 | 3:06.00 | 62772 | 76721
7 | 17:02.72 | 2:28.43 | 76722 | 87864
8 | 19:31.40 | 0:25.07 | 87865 | 89746
9 | 19:56.47 | 5:32.60 | 89747 | 114706
10 | 25:29.32 | 2:41.45 | 114707 | 126826
11 | 28:11.02 | 4:25.53 | 126827 | 146754
12 | 32:36.55 | 4:03.00 | 146755 | 164979
13 | 36:39.55 | 0:55.60 | 164980 | 169164
14 | 37:35.40 | 1:21.62 | 169165 | 175301
15 | 38:57.27 | 1:54.15 | 175302 | 183866
16 | 40:51.42 | 4:04.15 | 183867 | 202181
17 | 44:55.57 | 0:20.05 | 202182 | 203686
18 | 45:15.62 | 5:12.13 | 203687 | 227099
19 | 50:28.00 | 2:22.35 | 227100 | 237784
20 | 52:50.35 | 2:51.55 | 237785 | 250664
21 | 55:42.15 | 11:10.67 | 250665 | 300981
22 | 66:53.07 | 2:05.53 | 300982 | 310409
23 | 68:58.60 | 1:53.42 | 310410 | 318926
24 | 70:52.27 | 3:54.55 | 318927 | 336531
Range status and errors
Selected range
Filename C:\RIP\Handel - The Messiah (SBE) CD1.wav
Peak level 88.1 %
Extraction speed 3.5 X
Range quality 100.0 %
Test CRC 28523DC1
Copy CRC 28523DC1
Copy OK
No errors occurred
AccurateRip summary
Track 1 accurately ripped (confidence 4) [7C58D464] (AR v2)
Track 2 accurately ripped (confidence 4) [563A6D0B] (AR v2)
Track 3 accurately ripped (confidence 3) [9A498EC1] (AR v2)
Track 4 accurately ripped (confidence 4) [EB55BBCE] (AR v2)
Track 5 accurately ripped (confidence 4) [4B1B857D] (AR v2)
Track 6 accurately ripped (confidence 4) [511DFA01] (AR v2)
Track 7 accurately ripped (confidence 4) [40D1952D] (AR v2)
Track 8 accurately ripped (confidence 4) [9A2A8AAF] (AR v2)
Track 9 accurately ripped (confidence 4) [AD13E6AF] (AR v2)
Track 10 accurately ripped (confidence 3) [B03B50BC] (AR v2)
Track 11 accurately ripped (confidence 4) [F0169096] (AR v2)
Track 12 accurately ripped (confidence 4) [2EAEE6D4] (AR v2)
Track 13 accurately ripped (confidence 4) [46254F87] (AR v2)
Track 14 accurately ripped (confidence 4) [C25B348E] (AR v2)
Track 15 accurately ripped (confidence 4) [A3B5806B] (AR v2)
Track 16 accurately ripped (confidence 4) [942E255E] (AR v2)
Track 17 accurately ripped (confidence 4) [0E035F32] (AR v2)
Track 18 accurately ripped (confidence 4) [163CCD46] (AR v2)
Track 19 accurately ripped (confidence 4) [82EBA384] (AR v2)
Track 20 accurately ripped (confidence 4) [B72AC99A] (AR v2)
Track 21 accurately ripped (confidence 3) [B4A26334] (AR v2)
Track 22 accurately ripped (confidence 4) [3640A2D6] (AR v2)
Track 23 accurately ripped (confidence 4) [96D44B5E] (AR v2)
Track 24 accurately ripped (confidence 4) [3992DEF9] (AR v2)
All tracks accurately ripped
End of status report
==== Log checksum 4808C8DFB8E2FEDB9F15051B7303E7C22DCF147F4A8AF8E6C237B9166961A449 ====

Лог создания рипа CD 2

Exact Audio Copy V1.0 beta 3 from 29. August 2011
EAC extraction logfile from 23. December 2012, 18:08
The Scholars Baroque Ensemble / The Messiah
Used drive : TSSTcorp CDDVDW Adapter: 0 ID: 0
Read mode : Secure
Utilize accurate stream : Yes
Defeat audio cache : Yes
Make use of C2 pointers : No
Read offset correction : 6
Overread into Lead-In and Lead-Out : No
Fill up missing offset samples with silence : Yes
Delete leading and trailing silent blocks : No
Null samples used in CRC calculations : Yes
Used interface : Installed external ASPI interface
Used output format : User Defined Encoder
Selected bitrate : 768 kBit/s
Quality : High
Add ID3 tag : No
Command line compressor : C:\Program Files (x86)\Exact Audio Copy\FLAC\FLAC.EXE
Additional command line options : -6 -V -T "ARTIST=%artist%" -T "TITLE=%title%" -T "ALBUM=%albumtitle%" -T "DATE=%year%" -T "TRACKNUMBER=%tracknr%" -T "GENRE=%genre%" -T "COMMENT=%comment%" -T "BAND=%albuminterpret%" -T "ALBUMARTIST=%albuminterpret%" -T "COMPOSER=%composer%" %haslyrics%--tag-from-file=LYRICS="%lyricsfile%"%haslyrics% -T "DISCNUMBER=%cdnumber%" -T "TOTALDISCS=%totalcds%" -T "TOTALTRACKS=%numtracks%" %hascover%--picture="%coverfile%"%hascover% %source% -o %dest%
TOC of the extracted CD
Track | Start | Length | Start sector | End sector
---------------------------------------------------------
1 | 0:00.00 | 0:44.37 | 0 | 3336
2 | 0:44.37 | 2:23.13 | 3337 | 14074
3 | 3:07.50 | 1:48.02 | 14075 | 22176
4 | 4:55.52 | 1:34.15 | 22177 | 29241
5 | 6:29.67 | 0:18.55 | 29242 | 30646
6 | 6:48.47 | 2:41.30 | 30647 | 42751
7 | 9:30.02 | 3:04.35 | 42752 | 56586
8 | 12:34.37 | 0:14.18 | 56587 | 57654
9 | 12:48.55 | 1:28.02 | 57655 | 64256
10 | 14:16.57 | 3:16.65 | 64257 | 79021
11 | 17:33.47 | 1:09.28 | 79022 | 84224
12 | 18:43.00 | 3:22.05 | 84225 | 99379
13 | 22:05.05 | 3:08.27 | 99380 | 113506
14 | 25:13.32 | 1:49.63 | 113507 | 121744
15 | 27:03.20 | 0:12.22 | 121745 | 122666
16 | 27:15.42 | 2:10.08 | 122667 | 132424
17 | 29:25.50 | 3:43.25 | 132425 | 149174
18 | 33:09.00 | 6:07.35 | 149175 | 176734
19 | 39:16.35 | 1:52.35 | 176735 | 185169
20 | 41:08.70 | 0:32.02 | 185170 | 187571
21 | 41:40.72 | 9:05.33 | 187572 | 228479
22 | 50:46.30 | 0:17.32 | 228480 | 229786
23 | 51:03.62 | 3:23.33 | 229787 | 245044
24 | 54:27.20 | 4:57.02 | 245045 | 267321
25 | 59:24.22 | 7:19.05 | 267322 | 300251
Range status and errors
Selected range
Filename C:\RIP\Handel - The Messiah (SBE) CD2.wav
Peak level 95.0 %
Extraction speed 3.4 X
Range quality 100.0 %
Test CRC 22BF39EF
Copy CRC 22BF39EF
Copy OK
No errors occurred
AccurateRip summary
Track 1 accurately ripped (confidence 3) [9F1451AF] (AR v2)
Track 2 accurately ripped (confidence 3) [874282D9] (AR v2)
Track 3 accurately ripped (confidence 3) [1D016687] (AR v2)
Track 4 accurately ripped (confidence 3) [C1A69FB8] (AR v2)
Track 5 accurately ripped (confidence 3) [AB915CED] (AR v2)
Track 6 accurately ripped (confidence 3) [77122B69] (AR v2)
Track 7 accurately ripped (confidence 3) [76AECD0A] (AR v2)
Track 8 accurately ripped (confidence 3) [783105C3] (AR v2)
Track 9 accurately ripped (confidence 3) [6D8620D1] (AR v2)
Track 10 accurately ripped (confidence 3) [6153BB0E] (AR v2)
Track 11 accurately ripped (confidence 3) [B56E12B3] (AR v2)
Track 12 accurately ripped (confidence 3) [D9D4EED3] (AR v2)
Track 13 accurately ripped (confidence 3) [792EEC02] (AR v2)
Track 14 accurately ripped (confidence 3) [0561EEC8] (AR v2)
Track 15 accurately ripped (confidence 3) [7D090D0A] (AR v2)
Track 16 accurately ripped (confidence 3) [7850B9BD] (AR v2)
Track 17 accurately ripped (confidence 3) [462ECE08] (AR v2)
Track 18 accurately ripped (confidence 3) [89598C78] (AR v2)
Track 19 accurately ripped (confidence 3) [A326113D] (AR v2)
Track 20 accurately ripped (confidence 3) [1C063184] (AR v2)
Track 21 accurately ripped (confidence 3) [5D6D927E] (AR v2)
Track 22 accurately ripped (confidence 3) [22C904DE] (AR v2)
Track 23 accurately ripped (confidence 3) [FFE0072B] (AR v2)
Track 24 accurately ripped (confidence 3) [231EABD5] (AR v2)
Track 25 accurately ripped (confidence 2) [298F4FAF] (AR v2)
All tracks accurately ripped
End of status report
==== Log checksum E91512DEC38D350FEAAF15274E852E53DAC79C3F65B5E11C585DA81555FC3378 ====
[teatrix.ru].t7928.torrent 
Торрент: Зарегистрирован [ 2015-10-14 02:42 ] · C981E1F8BDE2E27234CA1225BB39B9EA6CDCC22F

Скачать .torrent

Скачать

13 KB

Статус: проверено
Скачан: 0 раз
Размер: 597 MB
terms.php



Быстрый ответ

Имя:

      
Для отправки сообщений необходимо включить JavaScript
Показать сообщения:    

Текущее время: 08-Дек 21:11

Часовой пояс: UTC + 3


Вы можете начинать темы
Вы можете отвечать на сообщения
Вы не можете редактировать свои сообщения
Вы не можете удалять свои сообщения
Вы не можете голосовать в опросах
Вы не можете прикреплять файлы к сообщениям
Вы можете скачивать файлы