(Baroque sacred vocal) Handel – Music for Royal Occasions (Gillian Fisher, James Bowman, John Mark Ainsley / The King\'s Consort, Robert King) - 1988, FLAC (image+.cue) lossless


Статистика раздачи [Обновить пиров]
Размер:  242 MB   |    Зарегистрирован:  1 год 1 месяц   |    Скачан:  0 раз

Полного источника не было: 1 месяц 17 дней

 
   
 
 
 

[Цитировать]

Handel – Music for Royal Occasions – Robert King

Жанр: Baroque sacred vocal
Страна-производитель диска: Made in England
Год издания диска: 1988
Издатель (лейбл): Hyperion
Номер по каталогу: CDA66315
Дата записи: 1988
Аудиокодек: FLAC
Тип рипа: image+.cue
Битрейт аудио: lossless
Продолжительность: 55'00
Источник: релизер
сайт-источник/ник/другое: Odeon
Наличие сканов в содержимом раздачи: да
Треклист:

скрытый текст

01. Birthday Ode for Queen Anne - Eternal source of light divine [0:03:23.15]
02. The day that gave great Anna birth [0:02:44.42]
03. Let all the winged race with joy [0:02:37.73]
04. Let flocks and herds their fear forget [0:02:37.60]
05. Let rolling streams their gladness show [0:02:41.72]
06. Kind Health descends on downy wings [0:04:44.13]
07. The day that gave great Anna birth [0:01:44.15]
08. Let envy then conceal her head [0:02:14.70]
09. United nations shall combine [0:03:17.65]
10. Te Deum in D Major - We praise thee O God [0:01:54.65]
11. The glorious company of the Apostles praise thee [0:03:05.52]
12. When thou tookest unon thee to deliver man [0:03:04.65]
13. Day by day we magnify thee [0:01:03.13]
14. Vouchsafe, O Lord, to keep us this day without sin [0:01:39.02]
15. O Lord, in thee have I trusted [0:01:22.53]
16. Sing unto God - Sing unto God, ye kingdoms of the earth [0:03:06.12]
17. Blessed are all they that fear the Lord [0:02:22.03]
18. Thy wife shall be as the fruitful vine [0:03:51.10]
19. Lo, thus shall the man be blessed [0:01:45.22]
20. Blessed be the Lord God of Israel [0:00:49.70]
21. And let all the people say [0:04:49.33]
Исполнители:

скрытый текст

George Frideric Handel (1685-1759):
Eternal source of light divine - Birthday Ode for Queen Anne
Te Deum in D Major - to Queen Caroline
Sing unto God - Wedding Anthem for Prince Frederick and Princess Augusta
Gillian Fisher - soprano
James Bowman - counter tenor
John Mark Ainsley - tenor
Michael George - bass
Choir of the New College, Oxford
The King's Consort
Robert King - conductor

Лог создания рипа

Exact Audio Copy V1.0 beta 3 from 29. August 2011
EAC extraction logfile from 20. May 2014, 12:37
Robert King / Handel - Music for Royal Occasions - Robert King
Used drive : TSSTcorpCDDVDW SH-222BB Adapter: 2 ID: 1
Read mode : SecureUtilize accurate stream : YesDefeat audio cache : YesMake use of C2 pointers : No
Read offset correction : 6Overread into Lead-In and Lead-Out : NoFill up missing offset samples with silence : YesDelete leading and trailing silent blocks : NoNull samples used in CRC calculations : YesUsed interface : Native Win32 interface for Win NT & 2000
Used output format : User Defined EncoderSelected bitrate : 896 kBit/sQuality : HighAdd ID3 tag : NoCommand line compressor : C:\Program Files\Exact Audio Copy\FLAC\FLAC.EXEAdditional command line options : -8 -V -T "TITLE=%title%" -T "ARTIST=%artist%" -T "ALBUMARTIST=%albumartist%" -T "ALBUM=%albumtitle%" -T "DATE=%year%" -T "TRACKNUMBER=%tracknr%" -T "TRACKTOTAL=%numtracks%" -T "GENRE=%genre%" -T "COMMENT=%comment%" -T "PERFORMER=%albuminterpret%" -T "COMPOSER=%composer%" %source% -o %dest%
TOC of the extracted CD
Track | Start | Length | Start sector | End sector --------------------------------------------------------- 1 | 0:00.00 | 3:23.15 | 0 | 15239 2 | 3:23.15 | 2:44.42 | 15240 | 27581 3 | 6:07.57 | 2:37.73 | 27582 | 39429 4 | 8:45.55 | 2:37.60 | 39430 | 51264 5 | 11:23.40 | 2:41.72 | 51265 | 63411 6 | 14:05.37 | 4:44.13 | 63412 | 84724 7 | 18:49.50 | 1:44.15 | 84725 | 92539 8 | 20:33.65 | 2:14.70 | 92540 | 102659 9 | 22:48.60 | 3:17.65 | 102660 | 117499 10 | 26:06.50 | 1:54.65 | 117500 | 126114 11 | 28:01.40 | 3:05.52 | 126115 | 140041 12 | 31:07.17 | 3:04.65 | 140042 | 153906 13 | 34:12.07 | 1:03.13 | 153907 | 158644 14 | 35:15.20 | 1:39.02 | 158645 | 166071 15 | 36:54.22 | 1:22.53 | 166072 | 172274 16 | 38:17.00 | 3:06.12 | 172275 | 186236 17 | 41:23.12 | 2:22.03 | 186237 | 196889 18 | 43:45.15 | 3:51.10 | 196890 | 214224 19 | 47:36.25 | 1:45.22 | 214225 | 222121 20 | 49:21.47 | 0:49.70 | 222122 | 225866 21 | 50:11.42 | 4:49.33 | 225867 | 247574
Range status and errors
Selected range
Filename E:\4000\[4171] Handel – Music for Royal Occasions – Robert King\Handel - Music for Royal Occasions - Robert King.wav
Peak level 99.9 % Extraction speed 6.4 X Range quality 100.0 % Test CRC AB10F220 Copy CRC AB10F220 Copy OK
No errors occurred
AccurateRip summary
Track 1 accurately ripped (confidence 4) [37E93C53] (AR v2)Track 2 accurately ripped (confidence 4) [08C5C775] (AR v2)Track 3 accurately ripped (confidence 4) [A21952DA] (AR v2)Track 4 accurately ripped (confidence 4) [294001E3] (AR v2)Track 5 accurately ripped (confidence 4) [65D9799F] (AR v2)Track 6 accurately ripped (confidence 4) [F10C32F1] (AR v2)Track 7 accurately ripped (confidence 4) [39A6EA63] (AR v2)Track 8 accurately ripped (confidence 4) [8BA3EA35] (AR v2)Track 9 accurately ripped (confidence 4) [F710FC05] (AR v2)Track 10 accurately ripped (confidence 4) [7D66B16A] (AR v2)Track 11 accurately ripped (confidence 4) [F46B66F2] (AR v2)Track 12 accurately ripped (confidence 4) [937AC8E1] (AR v2)Track 13 accurately ripped (confidence 4) [9E9D250C] (AR v2)Track 14 accurately ripped (confidence 4) [BB7F95BB] (AR v2)Track 15 accurately ripped (confidence 4) [1E29F069] (AR v2)Track 16 accurately ripped (confidence 4) [668CEDCA] (AR v2)Track 17 accurately ripped (confidence 4) [8C4F7CCF] (AR v2)Track 18 accurately ripped (confidence 4) [BAA072F1] (AR v2)Track 19 accurately ripped (confidence 4) [338A6D0B] (AR v2)Track 20 accurately ripped (confidence 4) [CAE9DDD9] (AR v2)Track 21 accurately ripped (confidence 4) [BFB8E7C0] (AR v2)
All tracks accurately ripped
End of status report
==== Log checksum 3B4E8909219EC0163906952E252BC379101A0044C15495F79324C62CB2B36829 ====
[teatrix.ru].t7929.torrent 
Торрент: Зарегистрирован [ 2015-10-14 02:42 ] · 9703D05E32C96B23963883F40DAC5498E08129E8

Скачать .torrent

Скачать

20 KB

Статус: проверено
Скачан: 0 раз
Размер: 242 MB
terms.php



Быстрый ответ

Имя:

      
Для отправки сообщений необходимо включить JavaScript
Показать сообщения:    

Текущее время: 10-Дек 17:46

Часовой пояс: UTC + 3


Вы можете начинать темы
Вы можете отвечать на сообщения
Вы не можете редактировать свои сообщения
Вы не можете удалять свои сообщения
Вы не можете голосовать в опросах
Вы не можете прикреплять файлы к сообщениям
Вы можете скачивать файлы