(Classical, sacred) Johannes Brahms: Missa canonica • Joseph Rheinberger: Mass - The Choir of Westminster Cathedral, Martin Baker - 2006, FLAC (image+.cue) lossless


Статистика раздачи [Обновить пиров]
Размер:  286 MB   |    Зарегистрирован:  1 год 1 месяц   |    Скачан:  0 раз

Полного источника не было: Никогда

 
   
 
 
 

[Цитировать]

Johannes Brahms: Missa canonica • Joseph Rheinberger: Mass - The Choir of Westminster Cathedral, Martin Baker
Жанр: Classical, sacred
Страна-производитель диска: UK
Год издания диска: 2006
Издатель (лейбл): Hyperion
Номер по каталогу: CDA67559
Дата записи: 2005
Аудиокодек: FLAC
Тип рипа: image+.cue
Битрейт аудио: lossless
Продолжительность: 69:31
Источник: собственный рип
Наличие сканов в содержимом раздачи: да
Треклист:
Johannes Brahms (1833-1897)
[1]-[4] Missa canonica (1856-7)
[5] Es ist das Heil uns kommen her, Op.29 No.1
[6] Schaffe in mir, Gott, Op.29 No.2
[7] Geistliches Lied, Op.30
[8] Ave Maria, Op.12
[9]-[13] O Heiland, reiss die Himmel auf, Op.74 No.2
[14]-[17] Warum ist das Licht gegeben?, Op.74 No.1
Joseph Rheinberger (1839-1901)
[18]-[23] Mass in E flat major, Op.109 'Cantus Missae'
Исполнители:
The Choir of Westminster Cathedral
Martin Baker
The Master of Music

Лог создания рипа

Exact Audio Copy V1.0 beta 3 from 29. August 2011
EAC extraction logfile from 9. July 2014, 15:06
Westminster Cathedral Choir, Martin Baker / Brahms - Missa Canonica; Rheinberger - Mass
Used drive : HL-DT-STDVDRRW GWA-4164B Adapter: 5 ID: 0
Read mode : SecureUtilize accurate stream : YesDefeat audio cache : YesMake use of C2 pointers : No
Read offset correction : 102Overread into Lead-In and Lead-Out : NoFill up missing offset samples with silence : YesDelete leading and trailing silent blocks : NoNull samples used in CRC calculations : YesUsed interface : Native Win32 interface for Win NT & 2000
Used output format : User Defined EncoderSelected bitrate : 896 kBit/sQuality : HighAdd ID3 tag : NoCommand line compressor : C:\Program Files\Exact Audio Copy\FLAC\FLAC.EXEAdditional command line options : -V -8 %source%
TOC of the extracted CD
Track | Start | Length | Start sector | End sector --------------------------------------------------------- 1 | 0:00.00 | 3:56.21 | 0 | 17720 2 | 3:56.21 | 2:36.26 | 17721 | 29446 3 | 6:32.47 | 1:57.38 | 29447 | 38259 4 | 8:30.10 | 3:57.72 | 38260 | 56106 5 | 12:28.07 | 4:33.06 | 56107 | 76587 6 | 17:01.13 | 6:36.48 | 76588 | 106335 7 | 23:37.61 | 5:08.49 | 106336 | 129484 8 | 28:46.35 | 4:02.12 | 129485 | 147646 9 | 32:48.47 | 0:42.33 | 147647 | 150829 10 | 33:31.05 | 0:46.33 | 150830 | 154312 11 | 34:17.38 | 0:56.09 | 154313 | 158521 12 | 35:13.47 | 1:22.39 | 158522 | 164710 13 | 36:36.11 | 1:10.31 | 164711 | 169991 14 | 37:46.42 | 5:26.14 | 169992 | 194455 15 | 43:12.56 | 0:56.37 | 194456 | 198692 16 | 44:09.18 | 1:59.17 | 198693 | 207634 17 | 46:08.35 | 1:18.16 | 207635 | 213500 18 | 47:26.51 | 3:19.73 | 213501 | 228498 19 | 50:46.49 | 3:19.55 | 228499 | 243478 20 | 54:06.29 | 6:18.04 | 243479 | 271832 21 | 60:24.33 | 1:51.00 | 271833 | 280157 22 | 62:15.33 | 2:30.11 | 280158 | 291418 23 | 64:45.44 | 4:43.35 | 291419 | 312678
Range status and errors
Selected range
Filename D:\temp\Music\Brahms - Missa canonica; Rheinberger - Mass\Brahms - Missa Canonica; Rheinberger - Mass.wav
Peak level 99.8 % Extraction speed 2.9 X Range quality 100.0 % Test CRC 8E2B5296 Copy CRC 8E2B5296 Copy OK
No errors occurred
AccurateRip summary
Track 1 accurately ripped (confidence 2) [F64840F3] (AR v1)Track 2 accurately ripped (confidence 2) [F16CBDC8] (AR v1)Track 3 accurately ripped (confidence 2) [4744D952] (AR v1)Track 4 accurately ripped (confidence 2) [CB97B67E] (AR v1)Track 5 accurately ripped (confidence 2) [2724498C] (AR v1)Track 6 accurately ripped (confidence 2) [233C659E] (AR v1)Track 7 accurately ripped (confidence 2) [E2FB460D] (AR v1)Track 8 accurately ripped (confidence 2) [10924E16] (AR v1)Track 9 accurately ripped (confidence 2) [B587B7D4] (AR v1)Track 10 accurately ripped (confidence 2) [629FFEAE] (AR v1)Track 11 accurately ripped (confidence 2) [F27D10F8] (AR v1)Track 12 accurately ripped (confidence 2) [974C73B2] (AR v1)Track 13 accurately ripped (confidence 2) [D0B7AE0C] (AR v1)Track 14 accurately ripped (confidence 2) [4AA4F9EC] (AR v1)Track 15 accurately ripped (confidence 2) [9C64B4CF] (AR v1)Track 16 accurately ripped (confidence 2) [77E77DAA] (AR v1)Track 17 accurately ripped (confidence 2) [F9C67A5D] (AR v1)Track 18 accurately ripped (confidence 2) [D57A1F5E] (AR v1)Track 19 accurately ripped (confidence 2) [25964BEF] (AR v1)Track 20 accurately ripped (confidence 2) [214CB3AC] (AR v1)Track 21 accurately ripped (confidence 2) [98F8C7F5] (AR v1)Track 22 accurately ripped (confidence 2) [B313218D] (AR v1)Track 23 accurately ripped (confidence 2) [9D9785FF] (AR v1)
All tracks accurately ripped
End of status report
==== Log checksum 09557F3B7CEF51501ECDE0D2A3368ED092CCFEF762D158865B5C711D4A7A0138 ====
[teatrix.ru].t7930.torrent 
Торрент: Зарегистрирован [ 2015-10-14 02:42 ] · B4CC8425F5FCD9EF5C42251790C8904CEDD9A517

Скачать .torrent

Скачать

24 KB

Статус: проверено
Скачан: 0 раз
Размер: 286 MB
terms.php



Быстрый ответ

Имя:

      
Для отправки сообщений необходимо включить JavaScript
Показать сообщения:    

Текущее время: 09-Дек 22:21

Часовой пояс: UTC + 3


Вы можете начинать темы
Вы можете отвечать на сообщения
Вы не можете редактировать свои сообщения
Вы не можете удалять свои сообщения
Вы не можете голосовать в опросах
Вы не можете прикреплять файлы к сообщениям
Вы можете скачивать файлы