(Classical, sacred) Thomas Tallis - Gaude gloriosa; Magnificat; Nunc dimittis; Suscipe quaeso Domine & other sacred works - The Cardinall\'s Musick, Andrew Carwood - 2005, FLAC (image+.cue) lossless


Статистика раздачи [Обновить пиров]
Размер:  291 MB   |    Зарегистрирован:  1 год 1 месяц   |    Скачан:  0 раз

Полного источника не было: Никогда

 
   
 
 
 

[Цитировать]

Thomas Tallis - Gaude gloriosa; Magnificat; Nunc dimittis; Suscipe quaeso Domine & other sacred works - The Cardinall's Musick, Andrew Carwood
Жанр: Classical, sacred
Страна-производитель диска: UK
Год издания диска: 2005
Издатель (лейбл): Hyperion
Номер по каталогу: CDA67548
Дата записи: 2005
Аудиокодек: FLAC
Тип рипа: image+.cue
Битрейт аудио: lossless
Продолжительность: 69:15
Источник: собственный рип
Наличие сканов в содержимом раздачи: да
Треклист:
Thomas Tallis (c.1505-1585)
[1] Jesu salvator saeculi
[2] Gaude gloriosa
[3] Sermone blando angelus
[4] Magnificat
[5] Nunc dimittis
[6] Mihi autem nimis
[7] Absterge Domine
[8] Derelinguat impius
[9] Loquebantur variis linguis
[10] Suscipe quaeso Domine
[11] O nata lux
Исполнители:
The Cardinall's Musick
Andrew Carwood

Лог создания рипа

Exact Audio Copy V1.0 beta 3 from 29. August 2011
EAC extraction logfile from 9. July 2014, 2:09
The Cardinall's Musick, Andrew Carwood / Tallis - Gaude Gloriosa
Used drive : HL-DT-STDVDRAM GU70N Adapter: 0 ID: 0
Read mode : SecureUtilize accurate stream : YesDefeat audio cache : YesMake use of C2 pointers : No
Read offset correction : 48Overread into Lead-In and Lead-Out : NoFill up missing offset samples with silence : YesDelete leading and trailing silent blocks : NoNull samples used in CRC calculations : YesUsed interface : Native Win32 interface for Win NT & 2000
Used output format : User Defined EncoderSelected bitrate : 128 kBit/sQuality : HighAdd ID3 tag : NoCommand line compressor : C:\Program Files (x86)\Exact Audio Copy\Flac\flac.exeAdditional command line options : -V -8 -T "Date=%year%" -T "Genre=%genre%" %source%
TOC of the extracted CD
Track | Start | Length | Start sector | End sector --------------------------------------------------------- 1 | 0:00.00 | 4:24.49 | 0 | 19848 2 | 4:24.49 | 17:30.16 | 19849 | 98614 3 | 21:54.65 | 5:26.20 | 98615 | 123084 4 | 27:21.10 | 10:28.10 | 123085 | 170194 5 | 37:49.20 | 3:25.21 | 170195 | 185590 6 | 41:14.41 | 2:36.14 | 185591 | 197304 7 | 43:50.55 | 5:57.39 | 197305 | 224118 8 | 49:48.19 | 4:05.16 | 224119 | 242509 9 | 53:53.35 | 4:08.11 | 242510 | 261120 10 | 58:01.46 | 9:14.02 | 261121 | 302672 11 | 67:15.48 | 1:57.53 | 302673 | 311500
Range status and errors
Selected range
Filename C:\temp\CDA67548 - Tallis - Gaude gloriosa\Tallis - Gaude Gloriosa.wav
Peak level 95.3 % Extraction speed 2.1 X Range quality 99.9 % Test CRC DF2020D4 Copy CRC DF2020D4 Copy OK
No errors occurred
AccurateRip summary
Track 1 accurately ripped (confidence 2) [DAAB6AE8] (AR v2)Track 2 accurately ripped (confidence 2) [1C5FB5E4] (AR v2)Track 3 accurately ripped (confidence 2) [9E5FA541] (AR v2)Track 4 accurately ripped (confidence 2) [0EE6F8BB] (AR v2)Track 5 accurately ripped (confidence 2) [F14F9161] (AR v2)Track 6 accurately ripped (confidence 2) [5136522B] (AR v2)Track 7 accurately ripped (confidence 2) [61209CB8] (AR v2)Track 8 accurately ripped (confidence 2) [9A9941CE] (AR v2)Track 9 accurately ripped (confidence 2) [976EB7BE] (AR v2)Track 10 accurately ripped (confidence 2) [01BCE7C0] (AR v2)Track 11 accurately ripped (confidence 2) [042278EE] (AR v2)
All tracks accurately ripped
End of status report
==== Log checksum D7A2DB18BAF2F5999DCEE8AB953BFD6253CF274562EC87197749BA72C552C1CE ====
[teatrix.ru].t7931.torrent 
Торрент: Зарегистрирован [ 2015-10-14 02:42 ] · 27CB0AAD80109DBB8FFF077704A01C4C0A50FFFE

Скачать .torrent

Скачать

24 KB

Статус: проверено
Скачан: 0 раз
Размер: 291 MB
terms.php



Быстрый ответ

Имя:

      
Для отправки сообщений необходимо включить JavaScript
Показать сообщения:    

Текущее время: 10-Дек 06:08

Часовой пояс: UTC + 3


Вы можете начинать темы
Вы можете отвечать на сообщения
Вы не можете редактировать свои сообщения
Вы не можете удалять свои сообщения
Вы не можете голосовать в опросах
Вы не можете прикреплять файлы к сообщениям
Вы можете скачивать файлы