(Cantata/Anthem) Handel - Ode For St Cecilia's Day HWV 76; John Blow - God spake sometime in vision, Blessed is the man that hath not walked (Willcocks, Cantelo, Partridge, Brett, Nixon, Marcu) - 1992, APE (image+.cue) lossless


Статистика раздачи [Обновить пиров]
Размер:  334 MB   |    Зарегистрирован:  1 год 1 месяц   |    Скачан:  1 раз

Полного источника не было: 2 месяца 12 дней

 
   
 
 
 

[Цитировать]

George Frideric Handel - Ode For St Cecilia's Day HWV 76
John Blow - God spake sometime in vision, Blessed is the man that hath not walked
Жанр: Cantata/Anthem
Страна-производитель диска: Germany
Год издания диска: 1992
Издатель (лейбл): Decca (Ovation)
Номер по каталогу: 436 259-2
Дата записи: 1967, 1974
Аудиокодек: APE
Тип рипа: image+.cue
Битрейт аудио: lossless
Продолжительность: 73.39
Источник: собственный рип
Наличие сканов в содержимом раздачи: да
Треклист:
Ode for St Cecilia's Day, HWV 76 by George Frideric Handel
1. Overture: Larghetto e staccato—allegro—minuet
2. Recitative (tenor): From harmony, from heavenly harmony
3. Chorus: From harmony, from heavenly harmony
4. Aria (soprano): What passion cannot music raise and quell!
5. Aria (tenor) and Chorus: The trumpet's loud clangour
6. March
7. Aria (soprano): The soft complaining flute
8. Aria (tenor): Sharp violins proclaim their jealous pangs
9. Aria (soprano): But oh! What art can teach
10. Aria (soprano): Orpheus could lead the savage race
11. Recitative (soprano): But bright Cecilia raised the wonder higher
12. Grand Chorus with (soprano): As from the power of sacred lays
Anthems by John Blow
13. God spake sometime in visions
14. Blessed is the man that hath not walked
Исполнители: Conductor: Sir David Willcocks, Academy of St. Martin in the Fields, Cambridge King's College Choir
Ode for St Cecilia's Day: April Cantelo (Soprano), Ian Partridge (Tenor), Robert Spencer (Lute) Andrew Davis (Harpsichord), John Wells (Organ), Kenneth Heath (Cello), Richard Adenay (Flute)
Anthems: Charles Brett (countertenor), John Nixon (tenor), Marcus Creed, Peter Allwood (basses)

Лог создания рипа

Exact Audio Copy V1.0 beta 1 from 15. November 2010
EAC extraction logfile from 30. May 2012, 22:16
Sir David Willcocks - Choir of King's College, Cambridge / Handel - Ode for St Cecilia's Day, Blow - Anthems
Used drive : ASUS DRW-1608P Adapter: 0 ID: 0
Read mode : SecureUtilize accurate stream : YesDefeat audio cache : YesMake use of C2 pointers : No
Read offset correction : 48Overread into Lead-In and Lead-Out : NoFill up missing offset samples with silence : YesDelete leading and trailing silent blocks : NoNull samples used in CRC calculations : YesUsed interface : Installed external ASPI interface
Used output format : User Defined EncoderSelected bitrate : 128 kBit/sQuality : HighAdd ID3 tag : NoCommand line compressor : C:\Program Files\Monkey's Audio\MAC.exeAdditional command line options : %source% %dest% -c3000
TOC of the extracted CD
Track | Start | Length | Start sector | End sector --------------------------------------------------------- 1 | 0:00.33 | 4:23.50 | 33 | 19807 2 | 4:24.08 | 4:54.60 | 19808 | 41917 3 | 9:18.68 | 3:37.10 | 41918 | 58202 4 | 12:56.03 | 7:58.52 | 58203 | 94104 5 | 20:54.55 | 4:18.55 | 94105 | 113509 6 | 25:13.35 | 2:09.28 | 113510 | 123212 7 | 27:22.63 | 5:08.37 | 123213 | 146349 8 | 32:31.25 | 4:30.63 | 146350 | 166662 9 | 37:02.13 | 4:16.37 | 166663 | 185899 10 | 41:18.50 | 1:48.50 | 185900 | 194049 11 | 43:07.25 | 0:40.73 | 194050 | 197122 12 | 43:48.23 | 8:23.30 | 197123 | 234877 13 | 52:11.53 | 12:13.57 | 234878 | 289909 14 | 64:25.35 | 9:14.25 | 289910 | 331484
Range status and errors
Selected range
Filename D:\Downloads\CDImage.wav
Peak level 98.3 % Extraction speed 1.0 X Range quality 99.9 % Copy CRC 4C0AE8B2 Copy OK
No errors occurred
AccurateRip summary
Track 1 not present in databaseTrack 2 not present in databaseTrack 3 not present in databaseTrack 4 not present in databaseTrack 5 not present in databaseTrack 6 not present in databaseTrack 7 not present in databaseTrack 8 not present in databaseTrack 9 not present in databaseTrack 10 not present in databaseTrack 11 not present in databaseTrack 12 not present in databaseTrack 13 not present in databaseTrack 14 not present in database
None of the tracks are present in the AccurateRip database
End of status report
[teatrix.ru].t7933.torrent 
Торрент: Зарегистрирован [ 2015-10-14 02:42 ] · 46B77230C44B29BAF1609FC36603ADB892240A2A

Скачать .torrent

Скачать

14 KB

Статус: проверено
Скачан: 1 раз
Размер: 334 MB
terms.php



Быстрый ответ

Имя:

      
Для отправки сообщений необходимо включить JavaScript
Показать сообщения:    

Текущее время: 11-Дек 11:08

Часовой пояс: UTC + 3


Вы можете начинать темы
Вы можете отвечать на сообщения
Вы не можете редактировать свои сообщения
Вы не можете удалять свои сообщения
Вы не можете голосовать в опросах
Вы не можете прикреплять файлы к сообщениям
Вы можете скачивать файлы