(Classical, 20th century) Jongen: Mass for Choir, Organ & Brass • Peeters: Missa Festiva - The Choir of St John\'s College, Cambridge, London City Brass, Paul Provost, David Hill - 2007, FLAC (image+.cue) lossless


Статистика раздачи [Обновить пиров]
Размер:  271 MB   |    Зарегистрирован:  1 год 1 месяц   |    Скачан:  0 раз

Полного источника не было: Никогда

 
   
 
 
 

[Цитировать]

Jongen: Mass for Choir, Organ & Brass • Peeters: Missa Festiva - The Choir of St John's College, Cambridge, London City Brass, Paul Provost, David Hill
Жанр: Classical, 20th century
Страна-производитель диска: UK
Год издания диска: 2007
Издатель (лейбл): Hyperion
Номер по каталогу: CDA67603
Дата записи: 2006
Аудиокодек: FLAC
Тип рипа: image+.cue
Битрейт аудио: lossless
Продолжительность: 72:50
Источник: собственный рип
Наличие сканов в содержимом раздачи: да
Треклист:
Joseph Jongen (1873-1953)
[1]-[6] Messe en l'honneur du Saint-Sacrement, Op.130 (1945-8)
for choir, organ and brass
[7] Deus Abraham
[8] Pie Jesu
[9] Quid sum miser?
Flor Peeters (1903-1986)
[10]-[15] Missa Festiva, Op.62 (1947)
for choir and organ
Исполнители:
The Choir of St John's College, Cambridge
London City Brass
Paul Provost
organ
David Hill Director of Music

Лог создания рипа

Exact Audio Copy V1.0 beta 3 from 29. August 2011
EAC extraction logfile from 30. June 2014, 1:15
The Choir of St John's College, Cambridge, David Hill / Jongen and Peeters - Sacred choral music
Used drive : HL-DT-STDVDRAM GSA-4083N Adapter: 1 ID: 0
Read mode : SecureUtilize accurate stream : YesDefeat audio cache : YesMake use of C2 pointers : No
Read offset correction : 667Overread into Lead-In and Lead-Out : NoFill up missing offset samples with silence : YesDelete leading and trailing silent blocks : NoNull samples used in CRC calculations : YesUsed interface : Native Win32 interface for Win NT & 2000
Used output format : User Defined EncoderSelected bitrate : 896 kBit/sQuality : HighAdd ID3 tag : NoCommand line compressor : C:\Program Files\Exact Audio Copy\Flac\flac.exeAdditional command line options : -V -8 %source%
TOC of the extracted CD
Track | Start | Length | Start sector | End sector --------------------------------------------------------- 1 | 0:00.00 | 4:56.47 | 0 | 22246 2 | 4:56.47 | 7:59.34 | 22247 | 58205 3 | 12:56.06 | 8:31.28 | 58206 | 96558 4 | 21:27.34 | 2:30.74 | 96559 | 107882 5 | 23:58.33 | 4:18.03 | 107883 | 127235 6 | 28:16.36 | 5:50.03 | 127236 | 153488 7 | 34:06.39 | 3:26.00 | 153489 | 168938 8 | 37:32.39 | 2:52.19 | 168939 | 181857 9 | 40:24.58 | 4:52.25 | 181858 | 203782 10 | 45:17.08 | 4:40.72 | 203783 | 224854 11 | 49:58.05 | 4:22.46 | 224855 | 244550 12 | 54:20.51 | 8:17.26 | 244551 | 281851 13 | 62:38.02 | 2:51.56 | 281852 | 294732 14 | 65:29.58 | 2:42.31 | 294733 | 306913 15 | 68:12.14 | 4:36.05 | 306914 | 327618
Range status and errors
Selected range
Filename J:\New Music\Jongen - Mass for Choir, Organ & Brass; Peeters - Missa Festiva\Jongen and Peeters - Sacred choral music.wav
Peak level 99.8 % Extraction speed 3.6 X Range quality 100.0 % Test CRC 8F988A79 Copy CRC 8F988A79 Copy OK
No errors occurred
AccurateRip summary
Track 1 accurately ripped (confidence 2) [910CE455] (AR v2)Track 2 accurately ripped (confidence 2) [E4247174] (AR v2)Track 3 accurately ripped (confidence 2) [BF3881D1] (AR v2)Track 4 accurately ripped (confidence 2) [63346478] (AR v2)Track 5 accurately ripped (confidence 2) [0553B4C3] (AR v2)Track 6 accurately ripped (confidence 2) [F6081541] (AR v2)Track 7 accurately ripped (confidence 2) [5CC0BC3C] (AR v2)Track 8 accurately ripped (confidence 2) [37B6C23F] (AR v2)Track 9 accurately ripped (confidence 2) [19873B02] (AR v2)Track 10 accurately ripped (confidence 2) [41A30912] (AR v2)Track 11 accurately ripped (confidence 2) [00B453C8] (AR v2)Track 12 accurately ripped (confidence 2) [6DA4A352] (AR v2)Track 13 accurately ripped (confidence 2) [45FAC86A] (AR v2)Track 14 accurately ripped (confidence 2) [D6221D81] (AR v2)Track 15 accurately ripped (confidence 2) [265012DA] (AR v2)
All tracks accurately ripped
End of status report
==== Log checksum E66EEA3C7E62C8DA3AB2DB998D9EAF3F9CF85E874A4A7943889AAD47893A1FAB ====
[teatrix.ru].t7934.torrent 
Торрент: Зарегистрирован [ 2015-10-14 02:42 ] · 28DD799C6DE256A745FBA5E0F326B0B163FDFD3C

Скачать .torrent

Скачать

22 KB

Статус: проверено
Скачан: 0 раз
Размер: 271 MB
terms.php



Быстрый ответ

Имя:

      
Для отправки сообщений необходимо включить JavaScript
Показать сообщения:    

Текущее время: 02-Дек 23:10

Часовой пояс: UTC + 3


Вы можете начинать темы
Вы можете отвечать на сообщения
Вы не можете редактировать свои сообщения
Вы не можете удалять свои сообщения
Вы не можете голосовать в опросах
Вы не можете прикреплять файлы к сообщениям
Вы можете скачивать файлы