(Classical, sacred) Antonio dos Santos Cunha - Responsorios para o Officio da Sexta-Feira Santa - Ensemble Turicum, Luiz Alves da Silva, Mathias Weibel - 2005, FLAC (image+.cue) lossless


Статистика раздачи [Обновить пиров]
Размер:  271 MB   |    Зарегистрирован:  1 год 1 месяц   |    Скачан:  0 раз

Полного источника не было: Никогда

 
   
 
 
 

[Цитировать]

Antonio dos Santos Cunha - Responsorios para o Officio da Sexta-Feira Santa - Ensemble Turicum, Luiz Alves da Silva, Mathias Weibel
Жанр: Classical, sacred
Страна-производитель диска: France
Год издания диска: 2005
Издатель (лейбл): K617
Номер по каталогу: K617168
Дата записи: 2004
Аудиокодек: FLAC
Тип рипа: image+.cue
Битрейт аудио: lossless
Продолжительность: 58:39
Источник: собственный рип
Наличие сканов в содержимом раздачи: да
Треклист:
Antonio dos Santos Cunha
Responsorios para o Officio da Sexta-Feira Santa
Nocturno I
Responsorium I
[1] Sicut ovis - Ut vivificaret
[2] Tradidit - Ut vivificaret
Responsorium II
[3] Jerusalem - quia in te
[4] Deduc - quia in te
Responsorium III
[5] Plange - Quia venit
[6] Accingite - Quia venit
Nocturno II
Responsorium IV
[7] Recessit - Nam et ille
[8] Dextruxit - Nam et ille
Responsorium V
[9] O vos omnes - Si est dolor
[10] Attendite - Si est dolor
Responsorium VI
[11] Ecce quomodo - Et erit in pace
[12] Tamquam agnus - Et erit in pace
Nocturno III
Responsorium VII
[13] Astiterunt - Adversus
[14] Quare - Adversus
Responsorium VIII
[15] Aestimatus - Factus sum
[16] Posuerunt - Factus sum
Responsorium IX
[17] Sepulto Domino - Ponentes milites
[18] Accedentes - Ponentes milites
[19] Fragmentos da Liturgia do Sabado Santo (anonyme)
Исполнители:
Ensemble Turicum
Luiz Alves da Silva, Mathias Weibel
direction

Лог создания рипа

Exact Audio Copy V1.0 beta 3 from 29. August 2011
EAC extraction logfile from 14. February 2014, 16:13
Ensemble Turicum, Luiz Alves da Silva, Mathias Weibel / Cunha - Responsorios para o Officio da Sexta-Feira Santa
Used drive : HL-DT-STDVDRRW GWA-4164B Adapter: 5 ID: 0
Read mode : SecureUtilize accurate stream : YesDefeat audio cache : YesMake use of C2 pointers : No
Read offset correction : 102Overread into Lead-In and Lead-Out : NoFill up missing offset samples with silence : YesDelete leading and trailing silent blocks : NoNull samples used in CRC calculations : YesUsed interface : Native Win32 interface for Win NT & 2000
Used output format : User Defined EncoderSelected bitrate : 896 kBit/sQuality : HighAdd ID3 tag : NoCommand line compressor : C:\Program Files\Exact Audio Copy\FLAC\FLAC.EXEAdditional command line options : -V -8 %source%
TOC of the extracted CD
Track | Start | Length | Start sector | End sector --------------------------------------------------------- 1 | 0:00.00 | 2:24.25 | 0 | 10824 2 | 2:24.25 | 3:42.09 | 10825 | 27483 3 | 6:06.34 | 2:26.24 | 27484 | 38457 4 | 8:32.58 | 3:24.54 | 38458 | 53811 5 | 11:57.37 | 1:57.52 | 53812 | 62638 6 | 13:55.14 | 4:29.41 | 62639 | 82854 7 | 18:24.55 | 2:33.69 | 82855 | 94398 8 | 20:58.49 | 3:30.33 | 94399 | 110181 9 | 24:29.07 | 1:53.48 | 110182 | 118704 10 | 26:22.55 | 2:12.57 | 118705 | 128661 11 | 28:35.37 | 2:12.00 | 128662 | 138561 12 | 30:47.37 | 5:15.30 | 138562 | 162216 13 | 36:02.67 | 2:20.02 | 162217 | 172718 14 | 38:22.69 | 2:42.23 | 172719 | 184891 15 | 41:05.17 | 1:45.39 | 184892 | 192805 16 | 42:50.56 | 3:23.04 | 192806 | 208034 17 | 46:13.60 | 3:01.33 | 208035 | 221642 18 | 49:15.18 | 5:15.00 | 221643 | 245267 19 | 54:30.18 | 4:07.67 | 245268 | 263859
Range status and errors
Selected range
Filename D:\temp\Music\K617168 - Cunha - Responsorios para o Officio da Sexta-Feira Santa\Cunha - Responsorios para o Officio da Sexta-Feira Santa.wav
Peak level 100.0 % Extraction speed 2.7 X Range quality 100.0 % Test CRC F9B51865 Copy CRC F9B51865 Copy OK
No errors occurred
AccurateRip summary
Track 1 accurately ripped (confidence 2) [DA1BA985] (AR v2)Track 2 accurately ripped (confidence 2) [28A5D4BB] (AR v2)Track 3 accurately ripped (confidence 2) [EB777BBB] (AR v2)Track 4 accurately ripped (confidence 2) [3A7DD729] (AR v2)Track 5 accurately ripped (confidence 2) [68724C3E] (AR v2)Track 6 accurately ripped (confidence 2) [97D7D461] (AR v2)Track 7 accurately ripped (confidence 2) [868E7AFF] (AR v2)Track 8 accurately ripped (confidence 2) [B39F33E7] (AR v2)Track 9 accurately ripped (confidence 2) [B4399FF3] (AR v2)Track 10 accurately ripped (confidence 2) [B2620F8B] (AR v2)Track 11 accurately ripped (confidence 2) [8ECFFD02] (AR v2)Track 12 accurately ripped (confidence 2) [B96EC859] (AR v2)Track 13 accurately ripped (confidence 2) [B42BD488] (AR v2)Track 14 accurately ripped (confidence 2) [28593985] (AR v2)Track 15 accurately ripped (confidence 2) [140BD539] (AR v2)Track 16 accurately ripped (confidence 2) [53445964] (AR v2)Track 17 accurately ripped (confidence 2) [DF493D49] (AR v2)Track 18 accurately ripped (confidence 2) [0107517F] (AR v2)Track 19 accurately ripped (confidence 2) [99227B92] (AR v2)
All tracks accurately ripped
End of status report
==== Log checksum BE51EBC1CFBDA1C304A886858E17A3C411AB2DAADE1CEED8C3E717392142ABF5 ====
[teatrix.ru].t7935.torrent 
Торрент: Зарегистрирован [ 2015-10-14 02:42 ] · F851531EBD3D535755733F455F5F27C3BBB1BEB7

Скачать .torrent

Скачать

23 KB

Статус: проверено
Скачан: 0 раз
Размер: 271 MB
terms.php



Быстрый ответ

Имя:

      
Для отправки сообщений необходимо включить JavaScript
Показать сообщения:    

Текущее время: 06-Дек 15:15

Часовой пояс: UTC + 3


Вы можете начинать темы
Вы можете отвечать на сообщения
Вы не можете редактировать свои сообщения
Вы не можете удалять свои сообщения
Вы не можете голосовать в опросах
Вы не можете прикреплять файлы к сообщениям
Вы можете скачивать файлы