(Classical) Geoffrey Burgon - Choral Music - Wells Cathedral Choir, Matthew Owens - 2013, FLAC (image+.cue) lossless


Статистика раздачи [Обновить пиров]
Размер:  264 MB   |    Зарегистрирован:  1 год 1 месяц   |    Скачан:  0 раз

Полного источника не было: Никогда

 
   
 
 
 

[Цитировать]

Geoffrey Burgon - Choral Music - Wells Cathedral Choir, Matthew Owens
Жанр: Classical
Страна-производитель диска: UK
Год издания диска: 2013
Издатель (лейбл): Hyperion
Номер по каталогу: CDH55421
Дата записи: 2006
Аудиокодек: FLAC
Тип рипа: image+.cue
Битрейт аудио: lossless
Продолжительность: 72:34
Источник: собственный рип
Наличие сканов в содержимом раздачи: да
Треклист:
Geoffrey Burgon (1941-2010)
[1] At The Round Earth's Imagined Corners
[2] Christ's Love - No.1 The Assumption
[3]-[7] Short Mass
[8] Of Flowers & Emeralds Sheen
[9] Magnificat
[10] Nunc dimittis (1979 Version)
[11] The First World - No.1 As The Angels Stood
[12] The First World - No.2 Apple Blossom
[13] Christ's Love - No.2 The Corpus Christi Carol
[14] The Song of the Creatures
[15] Death Be Not Proud
[16] Come Let Us Pity Not the Dead
[17] Te Deum
[18] Nunc dimittis (1997 Version)
Исполнители:
Wells Cathedral Choir
Matthew Owens

Лог создания рипа

Exact Audio Copy V1.0 beta 3 from 29. August 2011
EAC extraction logfile from 17. June 2014, 18:25
Wells Cathedral Choir, Matthew Owens / Burgon - Choral Music
Used drive : HL-DT-STDVDRRW GWA-4164B Adapter: 5 ID: 0
Read mode : SecureUtilize accurate stream : YesDefeat audio cache : YesMake use of C2 pointers : No
Read offset correction : 102Overread into Lead-In and Lead-Out : NoFill up missing offset samples with silence : YesDelete leading and trailing silent blocks : NoNull samples used in CRC calculations : YesUsed interface : Native Win32 interface for Win NT & 2000
Used output format : User Defined EncoderSelected bitrate : 896 kBit/sQuality : HighAdd ID3 tag : NoCommand line compressor : C:\Program Files\Exact Audio Copy\FLAC\FLAC.EXEAdditional command line options : -V -8 %source%
TOC of the extracted CD
Track | Start | Length | Start sector | End sector --------------------------------------------------------- 1 | 0:00.00 | 4:49.30 | 0 | 21704 2 | 4:49.30 | 2:39.15 | 21705 | 33644 3 | 7:28.45 | 2:09.35 | 33645 | 43354 4 | 9:38.05 | 3:06.12 | 43355 | 57316 5 | 12:44.17 | 1:25.07 | 57317 | 63698 6 | 14:09.24 | 1:32.11 | 63699 | 70609 7 | 15:41.35 | 2:37.20 | 70610 | 82404 8 | 18:18.55 | 5:06.51 | 82405 | 105405 9 | 23:25.31 | 4:37.36 | 105406 | 126216 10 | 28:02.67 | 3:04.40 | 126217 | 140056 11 | 31:07.32 | 2:06.29 | 140057 | 149535 12 | 33:13.61 | 3:14.15 | 149536 | 164100 13 | 36:28.01 | 4:45.66 | 164101 | 185541 14 | 41:13.67 | 12:15.15 | 185542 | 240681 15 | 53:29.07 | 3:57.65 | 240682 | 258521 16 | 57:26.72 | 5:14.35 | 258522 | 282106 17 | 62:41.32 | 6:26.68 | 282107 | 311124 18 | 69:08.25 | 3:25.57 | 311125 | 326556
Range status and errors
Selected range
Filename D:\temp\Music\CDH55421 - Burgon - Choral Music\Burgon - Choral Music.wav
Peak level 95.3 % Extraction speed 2.9 X Range quality 100.0 % Test CRC E584B810 Copy CRC E584B810 Copy OK
No errors occurred
AccurateRip summary
Track 1 cannot be verified as accurate (confidence 3) [0E3F1048], AccurateRip returned [0535960B] (AR v2)Track 2 cannot be verified as accurate (confidence 3) [E7A273F4], AccurateRip returned [3A8DE889] (AR v2)Track 3 cannot be verified as accurate (confidence 3) [A2003BEF], AccurateRip returned [98887704] (AR v2)Track 4 cannot be verified as accurate (confidence 2) [F94C7B28], AccurateRip returned [0C09FB8E] (AR v2)Track 5 cannot be verified as accurate (confidence 2) [C8900D34], AccurateRip returned [9F1802D6] (AR v2)Track 6 cannot be verified as accurate (confidence 2) [46D443C2], AccurateRip returned [0E33B26B] (AR v2)Track 7 cannot be verified as accurate (confidence 2) [0D7F8BAD], AccurateRip returned [3D298B06] (AR v2)Track 8 cannot be verified as accurate (confidence 2) [B6CAEAD8], AccurateRip returned [0A247268] (AR v2)Track 9 cannot be verified as accurate (confidence 2) [D6901F14], AccurateRip returned [78EA6CBF] (AR v2)Track 10 cannot be verified as accurate (confidence 2) [6B1EB2A2], AccurateRip returned [671B9138] (AR v2)Track 11 cannot be verified as accurate (confidence 2) [F4C938AD], AccurateRip returned [5D7ED669] (AR v2)Track 12 cannot be verified as accurate (confidence 2) [6CF13547], AccurateRip returned [24CB19E9] (AR v2)Track 13 accurately ripped (confidence 1) [D01987B9] (AR v2)Track 14 cannot be verified as accurate (confidence 2) [45556965], AccurateRip returned [250B1B63] (AR v2)Track 15 cannot be verified as accurate (confidence 2) [D5861D66], AccurateRip returned [AB1FB238] (AR v2)Track 16 cannot be verified as accurate (confidence 2) [6AA43363], AccurateRip returned [191BA985] (AR v2)Track 17 cannot be verified as accurate (confidence 2) [97070C88], AccurateRip returned [F16A5164] (AR v2)Track 18 cannot be verified as accurate (confidence 3) [EDB2557B], AccurateRip returned [DE1B89EE] (AR v2)
1 track(s) accurately ripped17 track(s) could not be verified as accurate
Some tracks could not be verified as accurate
End of status report
==== Log checksum 6B192C8492C97370483CF045D702940973A11E7587D30A86932981B9D9FBB622 ====
[teatrix.ru].t7936.torrent 
Торрент: Зарегистрирован [ 2015-10-14 02:42 ] · 244FBCA0C2C011552A8920AB8E9057B3D60108A4

Скачать .torrent

Скачать

22 KB

Статус: проверено
Скачан: 0 раз
Размер: 264 MB
terms.php



Быстрый ответ

Имя:

      
Для отправки сообщений необходимо включить JavaScript
Показать сообщения:    

Текущее время: 10-Дек 23:28

Часовой пояс: UTC + 3


Вы можете начинать темы
Вы можете отвечать на сообщения
Вы не можете редактировать свои сообщения
Вы не можете удалять свои сообщения
Вы не можете голосовать в опросах
Вы не можете прикреплять файлы к сообщениям
Вы можете скачивать файлы