(Choral) Franz Schubert - Mass No. 2 & Mass No. 6 (Robert Shaw & Atlanta Symphony Orchestra And Chorus) - 1990, FLAC (tracks+.cue) lossless


Статистика раздачи [Обновить пиров]
Размер:  358 MB   |    Зарегистрирован:  1 год 1 месяц   |    Скачан:  0 раз

Полного источника не было: Никогда

 
   
 
 
 

[Цитировать]

Franz Schubert: Mass No. 2 & Mass No. 6
Robert Shaw & Atlanta Symphony Orchestra And Chorus
Жанр: Choral
Страна-производитель диска: USA
Год издания диска: 1990
Издатель (лейбл): Telarc
Номер по каталогу: CD-80212
Дата записи: 1988-1989
Аудиокодек: FLAC
Тип рипа: tracks+.cue
Битрейт аудио: lossless
Продолжительность: 1:17:46
Источник: скачано с
сайт-источник/ник/другое: погружение в классику (спасибо оригинальному релизеру!)
Наличие сканов в содержимом раздачи: да
Треклист:
Mass for soloists, chorus, strings & organ №2 in G major, D. 167
1. I. Kyrie 3:40
2. II. Gloria 2:55
3. III. Credo 6:09
4. IV. Sanctus 1:32
5. V. Benedictus 4:16
6. VI. Agnus Dei 5:50
Mass for soloists, chorus & orchestra №6 in E flat major, D. 950
7. I. Kyrie 6:21
8. II. Gloria 13:42
9. III. Credo 14:57
10. IV. Sanctus 3:38
11. V. Benedictus 5:21
12. VI. Agnus Dei 9:19
Исполнители:
Mass No. 2:
David Gordon - Tenor
William Stone - Baritone
Dawn Upshaw - Soprano
Mass No. 6:
Marietta Simpson - Mezzo-Soprano
Benita Valente - Soprano
Jon Humphrey - Tenor
Glenn Siebert - Tenor
Myron Myers - Baritone
Atlanta Symphony Orchestra, Atlanta Symphony Chorus
Robert Shaw - conductor

Лог создания рипа

Exact Audio Copy V1.0 beta 3 from 29. August 2011
Отчёт EAC об извлечении, выполненном 6. февраля 2013, 2:22
Robert Shaw - Atlanta Symphony Orchestra & Choruses / Schubert: Mass No.2 and No.6
Дисковод: hp DVD A DS8A8SH Adapter: 0 ID: 1
Режим чтения : ДостоверностьИспользование точного потока : ДаОтключение кэша аудио : ДаИспользование указателей C2 : Нет
Коррекция смещения при чтении : 6Способность читать области Lead-in и Lead-out : НетЗаполнение пропущенных сэмплов тишиной : ДаУдаление блоков с тишиной в начале и конце : НетПри вычислениях CRC использовались нулевые сэмплы : ДаИнтерфейс : Встроенный Win32-интерфейс для Win NT/2000Обработка зазоров : Не обнаружено, добавлено к предыдущему треку
Выходной формат : Пользовательский кодировщикВыбранный битрейт : 896 kBit/sКачество : ВысокийДобавление ID3-тега : НетУтилита сжатия : C:\Program Files (x86)\Exact Audio Copy\FLAC\FLAC.EXEДополнительные параметры : -6 -V -T "ARTIST=%artist%" -T "TITLE=%title%" -T "ALBUM=%albumtitle%" -T "DATE=%year%" -T "TRACKNUMBER=%tracknr%" -T "GENRE=%genre%" -T "COMMENT=%comment%" -T "BAND=%albuminterpret%" -T "ALBUMARTIST=%albuminterpret%" -T "COMPOSER=%composer%" %haslyrics%--tag-from-file=LYRICS="%lyricsfile%"%haslyrics% -T "DISCNUMBER=%cdnumber%" -T "TOTALDISCS=%totalcds%" -T "TOTALTRACKS=%numtracks%" %hascover%--picture="%coverfile%"%hascover% %source% -o %dest%
TOC извлечённого CD
Трек | Старт | Длительность | Начальный сектор | Конечный сектор --------------------------------------------------------------------- 1 | 0:00.00 | 3:38.12 | 0 | 16361 2 | 3:38.12 | 2:55.18 | 16362 | 29504 3 | 6:33.30 | 6:08.70 | 29505 | 57174 4 | 12:42.25 | 1:31.55 | 57175 | 64054 5 | 14:14.05 | 4:16.57 | 64055 | 83311 6 | 18:30.62 | 5:52.28 | 83312 | 109739 7 | 24:23.15 | 6:23.05 | 109740 | 138469 8 | 30:46.20 | 13:44.07 | 138470 | 200276 9 | 44:30.27 | 14:58.58 | 200277 | 267684 10 | 59:29.10 | 3:38.20 | 267685 | 284054 11 | 63:07.30 | 5:21.10 | 284055 | 308139 12 | 68:28.40 | 9:18.35 | 308140 | 350024
Трек 1
Имя файла C:\Users\Виктор\Music\RIP\Новая папка\01 Mass no.2 in G major, D.167 - 1. Kyrie.wav
Пиковый уровень 69.8 % Скорость извлечения 3.0 X Качество трека 100.0 % CRC теста EB575158 CRC копии EB575158 Точное извлечение (достоверность 5) [7E362521] (AR v1) Копирование... OK
Трек 2
Имя файла C:\Users\Виктор\Music\RIP\Новая папка\02 Mass no.2 in G major, D.167 - 2. Gloria.wav
Пиковый уровень 92.8 % Скорость извлечения 3.1 X Качество трека 100.0 % CRC теста 0C724C54 CRC копии 0C724C54 Точное извлечение (достоверность 5) [E0944A69] (AR v1) Копирование... OK
Трек 3
Имя файла C:\Users\Виктор\Music\RIP\Новая папка\03 Mass no.2 in G major, D.167 - 3. Credo.wav
Пиковый уровень 100.0 % Скорость извлечения 3.7 X Качество трека 100.0 % CRC теста 392EF7E0 CRC копии 392EF7E0 Точное извлечение (достоверность 5) [3012F859] (AR v1) Копирование... OK
Трек 4
Имя файла C:\Users\Виктор\Music\RIP\Новая папка\04 Mass no.2 in G major, D.167 - 4. Sanctus.wav
Пиковый уровень 90.6 % Скорость извлечения 3.1 X Качество трека 100.0 % CRC теста 1AC082DB CRC копии 1AC082DB Точное извлечение (достоверность 5) [986EA297] (AR v1) Копирование... OK
Трек 5
Имя файла C:\Users\Виктор\Music\RIP\Новая папка\05 Mass no.2 in G major, D.167 - 5. Benedictus.wav
Пиковый уровень 66.9 % Скорость извлечения 3.9 X Качество трека 100.0 % CRC теста 0E48DB7E CRC копии 0E48DB7E Точное извлечение (достоверность 5) [5CD1F4D9] (AR v1) Копирование... OK
Трек 6
Имя файла C:\Users\Виктор\Music\RIP\Новая папка\06 Mass no.2 in G major, D.167 - 6. Agnus Dei.wav
Пиковый уровень 47.8 % Скорость извлечения 4.4 X Качество трека 100.0 % CRC теста 1BEE58A1 CRC копии 1BEE58A1 Точное извлечение (достоверность 5) [8FDFA600] (AR v1) Копирование... OK
Трек 7
Имя файла C:\Users\Виктор\Music\RIP\Новая папка\07 Mass no.6 in E-flat major, D.950 - 1. Kyrie.wav
Пиковый уровень 78.4 % Скорость извлечения 4.7 X Качество трека 100.0 % CRC теста BC41D8F5 CRC копии BC41D8F5 Точное извлечение (достоверность 5) [DE98A2BA] (AR v1) Копирование... OK
Трек 8
Имя файла C:\Users\Виктор\Music\RIP\Новая папка\08 Mass no.6 in E-flat major, D.950 - 2. Gloria.wav
Пиковый уровень 93.6 % Скорость извлечения 5.4 X Качество трека 100.0 % CRC теста 49D1352E CRC копии 49D1352E Точное извлечение (достоверность 5) [87F34CD3] (AR v1) Копирование... OK
Трек 9
Имя файла C:\Users\Виктор\Music\RIP\Новая папка\09 Mass no.6 in E-flat major, D.950 - 3. Credo.wav
Пиковый уровень 83.5 % Скорость извлечения 6.1 X Качество трека 100.0 % CRC теста 4FA9A750 CRC копии 4FA9A750 Точное извлечение (достоверность 4) [6497FBAA] (AR v1) Копирование... OK
Трек 10
Имя файла C:\Users\Виктор\Music\RIP\Новая папка\10 Mass no.6 in E-flat major, D.950 - 4. Sanctus.wav
Пиковый уровень 91.7 % Скорость извлечения 5.7 X Качество трека 100.0 % CRC теста 4277AD9B CRC копии 4277AD9B Точное извлечение (достоверность 5) [E0FE9177] (AR v1) Копирование... OK
Трек 11
Имя файла C:\Users\Виктор\Music\RIP\Новая папка\11 Mass no.6 in E-flat major, D.950 - 5. Benedictus.wav
Пиковый уровень 80.4 % Скорость извлечения 6.2 X Качество трека 100.0 % CRC теста 6EBC239C CRC копии 6EBC239C Точное извлечение (достоверность 5) [05A67418] (AR v1) Копирование... OK
Трек 12
Имя файла C:\Users\Виктор\Music\RIP\Новая папка\12 Mass no.6 in E-flat major, D.950 - 6. Agnus Dei.wav
Пиковый уровень 98.1 % Скорость извлечения 6.7 X Качество трека 100.0 % CRC теста 24E0B9F3 CRC копии 24E0B9F3 Точное извлечение (достоверность 5) [C5F659D6] (AR v1) Копирование... OK
Все треки извлечены точно
Ошибок не произошло
Конец отчёта
==== Контрольная сумма отчёта 9C95091FDE19E31AD329D71BB4D5F886847C6D2207F1100E7EDBD129F904332C ====

Лог проверки качества

AUDIOCHECKER v2.0 beta (build 457) - by Dester - opdester@freemail.hu~~~~~~~~~~~~~~~~~~~~~~~~~~~~~~~~~~-=== DO NOT EDIT THIS FILE! ===-
Path: ...\Schubert - Mass No.2, Mass No.6 (Shaw)
01 -=- 01 Mass no.2 in G major, D.167 - 1. Kyrie.flac -=- CDDA (100%)02 -=- 02 Mass no.2 in G major, D.167 - 2. Gloria.flac -=- CDDA (100%)03 -=- 03 Mass no.2 in G major, D.167 - 3. Credo.flac -=- CDDA (99%)04 -=- 04 Mass no.2 in G major, D.167 - 4. Sanctus.flac -=- CDDA (100%)05 -=- 05 Mass no.2 in G major, D.167 - 5. Benedictus.flac -=- CDDA (100%)06 -=- 06 Mass no.2 in G major, D.167 - 6. Agnus Dei.flac -=- CDDA (99%)07 -=- 07 Mass no.6 in E-flat major, D.950 - 1. Kyrie.flac -=- CDDA (100%)08 -=- 08 Mass no.6 in E-flat major, D.950 - 2. Gloria.flac -=- CDDA (100%)09 -=- 09 Mass no.6 in E-flat major, D.950 - 3. Credo.flac -=- CDDA (100%)10 -=- 10 Mass no.6 in E-flat major, D.950 - 4. Sanctus.flac -=- CDDA (100%)11 -=- 11 Mass no.6 in E-flat major, D.950 - 5. Benedictus.flac -=- CDDA (100%)12 -=- 12 Mass no.6 in E-flat major, D.950 - 6. Agnus Dei.flac -=- CDDA (100%)
Summary 99,83% CDDA
246628772
[teatrix.ru].t7937.torrent 
Торрент: Зарегистрирован [ 2015-10-14 02:42 ] · 11B418617A2A580956174C247EA40D14DCA85769

Скачать .torrent

Скачать

17 KB

Статус: проверено
Скачан: 0 раз
Размер: 358 MB
terms.php



Быстрый ответ

Имя:

      
Для отправки сообщений необходимо включить JavaScript
Показать сообщения:    

Текущее время: 08-Дек 23:06

Часовой пояс: UTC + 3


Вы можете начинать темы
Вы можете отвечать на сообщения
Вы не можете редактировать свои сообщения
Вы не можете удалять свои сообщения
Вы не можете голосовать в опросах
Вы не можете прикреплять файлы к сообщениям
Вы можете скачивать файлы