(Choral, Renaissance) Antoine Busnoys [Busnois] - In Hydraulis & Other Works (Pomerium, Alexander Blachly) - 1993, FLAC (image+.cue) lossless


Статистика раздачи [Обновить пиров]
Размер:  448 MB   |    Зарегистрирован:  1 год 1 месяц   |    Скачан:  1 раз

Полного источника не было: 7 месяцев 4 дня

 
   
 
 
 

[Цитировать]

Antoine Busnoys - In Hydraulis & Other Works
Pomerium, Alexander Blachly
Жанр: Choral, Renaissance
Страна-производитель диска: USA
Год издания диска: 1993
Издатель (лейбл): Dorian
Номер по каталогу: DOR-90184
Дата записи: 1993
Аудиокодек: FLAC
Тип рипа: image+.cue
Битрейт аудио: lossless
Продолжительность: 1:12:02
Источник: скачано с
сайт-источник/ник/другое: блог o-mymusic
Наличие сканов в содержимом раздачи: да
Треклист:
01 In hydraulis [7:12]
02 Anthoni usque limina [5:35]
03 Victime pascali (plainchant, Sarum rite, 13th c.) [2:01]
04 Victime pascali [5:39]
05 Regina celi (plainchant, Cambrai use, c. 1508) [1:51]
06 Regina celi I [6:00]
07 A que ville [4:56]
08 Bel acueil [4:14]
09 Je ne puis vivre [4:41]
Missa "O crux lignum triumphale"
10 1. Kyrie [2:35]
11 2. Gloria [6:11]
12 3. Credo [7:31]
13 4. Sanctus [7:27]
14 5. Agnus [6:10]
Исполнители:
Pomerium
Alexander Blachly - conductor

Лог создания рипа

Exact Audio Copy V0.99 prebeta 4 from 23. January 2008
EAC extraction logfile from 15. April 2011, 3:40
Antoine Busnoys - In hydraulis & other works / Pomerium
Used drive : SONY DVD-ROM DDU1615 Adapter: 0 ID: 0
Read mode : SecureUtilize accurate stream : YesDefeat audio cache : YesMake use of C2 pointers : No
Read offset correction : 6Overread into Lead-In and Lead-Out : NoFill up missing offset samples with silence : YesDelete leading and trailing silent blocks : NoNull samples used in CRC calculations : NoUsed interface : Native Win32 interface for Win NT & 2000
Used output format : User Defined EncoderSelected bitrate : 896 kBit/sQuality : HighAdd ID3 tag : NoCommand line compressor : C:\Program Files\REACT\REACT.exeAdditional command line options : REACT %o %s %d "%a" "%g" "%t" "%n" "%x" "%y" "%m" "%e" "%f" "%b" %rUse compression offset : 0
TOC of the extracted CD
Track | Start | Length | Start sector | End sector --------------------------------------------------------- 1 | 0:00.00 | 7:11.52 | 0 | 32376 2 | 7:11.52 | 5:34.45 | 32377 | 57471 3 | 12:46.22 | 2:01.08 | 57472 | 66554 4 | 14:47.30 | 5:39.30 | 66555 | 92009 5 | 20:26.60 | 1:50.72 | 92010 | 100331 6 | 22:17.57 | 6:00.15 | 100332 | 127346 7 | 28:17.72 | 4:55.50 | 127347 | 149521 8 | 33:13.47 | 4:13.68 | 149522 | 168564 9 | 37:27.40 | 4:41.35 | 168565 | 189674 10 | 42:09.00 | 2:34.47 | 189675 | 201271 11 | 44:43.47 | 6:10.38 | 201272 | 229059 12 | 50:54.10 | 7:31.20 | 229060 | 262904 13 | 58:25.30 | 7:26.50 | 262905 | 296404 14 | 65:52.05 | 6:10.35 | 296405 | 324189
Range status and errors
Selected range
Filename H:\Classical Recordings\Busnoys\Antoine Busnoys - In hydraulis & other works - Pomerium.wav
Peak level 98.8 % Range quality 100.0 % Copy CRC 857E5965 Copy OK
No errors occurred
AccurateRip summary
Track 1 not present in databaseTrack 2 not present in databaseTrack 3 not present in databaseTrack 4 not present in databaseTrack 5 not present in databaseTrack 6 not present in databaseTrack 7 not present in databaseTrack 8 not present in databaseTrack 9 not present in databaseTrack 10 not present in databaseTrack 11 not present in databaseTrack 12 not present in databaseTrack 13 not present in databaseTrack 14 not present in database
None of the tracks are present in the AccurateRip database
End of status report

Лог проверки качества

AUDIOCHECKER v2.0 beta (build 457) - by Dester - opdester@freemail.hu~~~~~~~~~~~~~~~~~~~~~~~~~~~~~~~~~~-=== DO NOT EDIT THIS FILE! ===-
Path: ...\Busnoys - In Hydraulis & Other Works (Pomerium)
1 -=- Antoine Busnoys - In hydraulis & other works - Pomerium.flac -=- CDDA (92%)
162630244
[teatrix.ru].t7938.torrent 
Торрент: Зарегистрирован [ 2015-10-14 02:42 ] · DCB0372F12BCD561372B81620522EBF99F5F7576

Скачать .torrent

Скачать

19 KB

Статус: проверено
Скачан: 1 раз
Размер: 448 MB
terms.php



Быстрый ответ

Имя:

      
Для отправки сообщений необходимо включить JavaScript
Показать сообщения:    

Текущее время: 10-Дек 17:46

Часовой пояс: UTC + 3


Вы можете начинать темы
Вы можете отвечать на сообщения
Вы не можете редактировать свои сообщения
Вы не можете удалять свои сообщения
Вы не можете голосовать в опросах
Вы не можете прикреплять файлы к сообщениям
Вы можете скачивать файлы