(Classical) Herbert Howells - The Winchester Service (Simon Bell, Andrew Lumsden) - 2011, FLAC (tracks+.cue) lossless


Статистика раздачи [Обновить пиров]
Размер:  264 MB   |    Зарегистрирован:  1 год 1 месяц   |    Скачан:  0 раз

Полного источника не было: Никогда

 
   
 
 
 

[Цитировать]

Herbert Howells - The Winchester Service (Simon Bell, Andrew Lumsden)
Жанр: Classical
Год издания диска: 2011
Издатель (лейбл): Hyperion
Номер по каталогу: 67853
Аудиокодек: FLAC
Тип рипа: tracks+.cue
Битрейт аудио: lossless
Продолжительность: 00:00:00
Источник: скачано из сети
Наличие сканов в содержимом раздачи: да
Треклист:
1. Jubilate Deo
2. Thee will I love
3. Magnificat (The Winchester Service)
4. Nunc dimittis
5. Rhapsody No. 4
6. Come, my soul
7. Te Deum
8. Coventry Antiphon
9. A Flourish for a Bidding
10. Antiphon
11. The fear of the Lord
12. Exultate Deo
Исполнители:
Simon Bell,
Andrew Lumsden

LOG EAC:

Exact Audio Copy V1.0 beta 3 from 29. August 2011
EAC extraction logfile from 12. September 2013, 11:50
Andrew Lumsden: Winchester Cathedral Choir / Howells - The Winchester Service & other late works
Used drive : SlimtypeDVD A DS8A8SH Adapter: 1 ID: 0
Read mode : SecureUtilize accurate stream : YesDefeat audio cache : YesMake use of C2 pointers : No
Read offset correction : 6Overread into Lead-In and Lead-Out : NoFill up missing offset samples with silence : YesDelete leading and trailing silent blocks : NoNull samples used in CRC calculations : YesUsed interface : Native Win32 interface for Win NT & 2000Gap handling : Appended to previous track
Used output format : User Defined EncoderSelected bitrate : 512 kBit/sQuality : HighAdd ID3 tag : NoCommand line compressor : C:\Program Files (x86)\Exact Audio Copy\Flac\flac.exeAdditional command line options : -8 -V -T "ARTIST=%artist%" -T "TITLE=%title%" -T "ALBUM=%albumtitle%" -T "DATE=%year%" -T "TRACKNUMBER=%tracknr%" -T "TOTALTRACKS=%numtracks%" -T "GENRE=%genre%" -T "ALBUMARTIST=%albumartist%" -T "ALBUM ARTIST=%albumartist%" -T "COMMENT=EAC Secure Mode, Test & Copy, AccurateRip, FLAC -8" %source%
TOC of the extracted CD
Track | Start | Length | Start sector | End sector---------------------------------------------------------1 | 0:00.00 | 4:29.00 | 0 | 201742 | 4:29.00 | 5:47.71 | 20175 | 462703 | 10:16.71 | 7:05.02 | 46271 | 781474 | 17:21.73 | 3:20.17 | 78148 | 931645 | 20:42.15 | 6:52.73 | 93165 | 1241376 | 27:35.13 | 4:29.37 | 124138 | 1443497 | 32:04.50 | 12:02.00 | 144350 | 1984998 | 44:06.50 | 4:49.29 | 198500 | 2202039 | 48:56.04 | 3:20.33 | 220204 | 23523610 | 52:16.37 | 4:03.09 | 235237 | 25347011 | 56:19.46 | 5:46.04 | 253471 | 27942412 | 62:05.50 | 6:22.65 | 279425 | 308139
Track 1
Filename D:\MY RIPS\Herbert Howells - The Winchester Service & other late works (2011) [FLAC] {Hyperion CDA67853}\01 - Jubilate Deo, ''St Peter Ad Vincula''.wav
Pre-gap length 0:00:02.00
Peak level 86.6 %Extraction speed 1.1 XTrack quality 100.0 %Test CRC C2F5BEB9Copy CRC C2F5BEB9Accurately ripped (confidence 2) [1BA04FFC] (AR v2)Copy OK
Track 2
Filename D:\MY RIPS\Herbert Howells - The Winchester Service & other late works (2011) [FLAC] {Hyperion CDA67853}\02 - Thee will I love.wav
Peak level 78.6 %Extraction speed 1.2 XTrack quality 99.9 %Test CRC FCE98F03Copy CRC FCE98F03Accurately ripped (confidence 2) [F3EF9E6B] (AR v2)Copy OK
Track 3
Filename D:\MY RIPS\Herbert Howells - The Winchester Service & other late works (2011) [FLAC] {Hyperion CDA67853}\03 - The Winchester Service - 1. Magnificat.wav
Peak level 72.9 %Extraction speed 1.5 XTrack quality 100.0 %Test CRC 23ACC3FBCopy CRC 23ACC3FBAccurately ripped (confidence 2) [766A2A0E] (AR v2)Copy OK
Track 4
Filename D:\MY RIPS\Herbert Howells - The Winchester Service & other late works (2011) [FLAC] {Hyperion CDA67853}\04 - The Winchester Service - 2. Nunc Dimittis.wav
Peak level 89.1 %Extraction speed 1.5 XTrack quality 100.0 %Test CRC 88145D3ACopy CRC 88145D3AAccurately ripped (confidence 2) [1299152F] (AR v2)Copy OK
Track 5
Filename D:\MY RIPS\Herbert Howells - The Winchester Service & other late works (2011) [FLAC] {Hyperion CDA67853}\05 - Rhapsody #4.wav
Peak level 68.4 %Extraction speed 1.6 XTrack quality 99.9 %Test CRC 0290F1DBCopy CRC 0290F1DBAccurately ripped (confidence 2) [38AA9086] (AR v2)Copy OK
Track 6
Filename D:\MY RIPS\Herbert Howells - The Winchester Service & other late works (2011) [FLAC] {Hyperion CDA67853}\06 - Come, my soul.wav
Peak level 74.3 %Extraction speed 1.8 XTrack quality 100.0 %Test CRC 6E7C0E88Copy CRC 6E7C0E88Accurately ripped (confidence 2) [EF8648F1] (AR v2)Copy OK
Track 7
Filename D:\MY RIPS\Herbert Howells - The Winchester Service & other late works (2011) [FLAC] {Hyperion CDA67853}\07 - Te Deum, ''St Mary Redcliffe''.wav
Peak level 89.0 %Extraction speed 2.1 XTrack quality 100.0 %Test CRC B37ACF67Copy CRC B37ACF67Accurately ripped (confidence 2) [4521D347] (AR v2)Copy OK
Track 8
Filename D:\MY RIPS\Herbert Howells - The Winchester Service & other late works (2011) [FLAC] {Hyperion CDA67853}\08 - Coventry Antiphon.wav
Peak level 78.1 %Extraction speed 2.1 XTrack quality 100.0 %Test CRC 1DECD8BDCopy CRC 1DECD8BDAccurately ripped (confidence 2) [00E6C355] (AR v2)Copy OK
Track 9
Filename D:\MY RIPS\Herbert Howells - The Winchester Service & other late works (2011) [FLAC] {Hyperion CDA67853}\09 - A Flourish for a Bidding.wav
Peak level 83.0 %Extraction speed 2.0 XTrack quality 100.0 %Test CRC C2A0EA09Copy CRC C2A0EA09Accurately ripped (confidence 2) [176168EE] (AR v2)Copy OK
Track 10
Filename D:\MY RIPS\Herbert Howells - The Winchester Service & other late works (2011) [FLAC] {Hyperion CDA67853}\10 - Antiphon.wav
Peak level 76.2 %Extraction speed 2.2 XTrack quality 100.0 %Test CRC 9EDE151ACopy CRC 9EDE151AAccurately ripped (confidence 2) [353A0875] (AR v2)Copy OK
Track 11
Filename D:\MY RIPS\Herbert Howells - The Winchester Service & other late works (2011) [FLAC] {Hyperion CDA67853}\11 - The fear of the Lord.wav
Peak level 86.0 %Extraction speed 2.3 XTrack quality 100.0 %Test CRC 7EE10200Copy CRC 7EE10200Accurately ripped (confidence 2) [CD260244] (AR v2)Copy OK
Track 12
Filename D:\MY RIPS\Herbert Howells - The Winchester Service & other late works (2011) [FLAC] {Hyperion CDA67853}\12 - Exultate Deo.wav
Peak level 79.6 %Extraction speed 2.5 XTrack quality 100.0 %Test CRC 5118470CCopy CRC 5118470CAccurately ripped (confidence 2) [781C23F3] (AR v2)Copy OK
All tracks accurately ripped
No errors occurred
End of status report
==== Log checksum 76932DA235ABEE6AA353634FCD2931FC143847E61AB553B075FFABA3F4021022 ====

LOG (.CUE):

REM GENRE ClassicalREM DATE 2010REM DISCID AE100C0CREM COMMENT "ExactAudioCopy v1.0b3"PERFORMER "Andrew Lumsden: Winchester Cathedral Choir"TITLE "Howells - The Winchester Service & other late works"FILE "01 - Jubilate Deo, ''St Peter Ad Vincula''.wav" WAVE TRACK 01 AUDIO TITLE "Jubilate Deo, 'St Peter Ad Vincula'" PERFORMER "Andrew Lumsden: Winchester Cathedral Choir" INDEX 01 00:00:00FILE "02 - Thee will I love.wav" WAVE TRACK 02 AUDIO TITLE "Thee will I love" PERFORMER "Andrew Lumsden: Winchester Cathedral Choir" INDEX 01 00:00:00FILE "03 - The Winchester Service - 1. Magnificat.wav" WAVE TRACK 03 AUDIO TITLE "The Winchester Service - 1. Magnificat" PERFORMER "Andrew Lumsden: Winchester Cathedral Choir" INDEX 01 00:00:00FILE "04 - The Winchester Service - 2. Nunc Dimittis.wav" WAVE TRACK 04 AUDIO TITLE "The Winchester Service - 2. Nunc Dimittis" PERFORMER "Andrew Lumsden: Winchester Cathedral Choir" INDEX 01 00:00:00FILE "05 - Rhapsody #4.wav" WAVE TRACK 05 AUDIO TITLE "Rhapsody #4" PERFORMER "Andrew Lumsden: Winchester Cathedral Choir" INDEX 01 00:00:00FILE "06 - Come, my soul.wav" WAVE TRACK 06 AUDIO TITLE "Come, my soul" PERFORMER "Andrew Lumsden: Winchester Cathedral Choir" INDEX 01 00:00:00FILE "07 - Te Deum, ''St Mary Redcliffe''.wav" WAVE TRACK 07 AUDIO TITLE "Te Deum, 'St Mary Redcliffe'" PERFORMER "Andrew Lumsden: Winchester Cathedral Choir" INDEX 01 00:00:00FILE "08 - Coventry Antiphon.wav" WAVE TRACK 08 AUDIO TITLE "Coventry Antiphon" PERFORMER "Andrew Lumsden: Winchester Cathedral Choir" INDEX 01 00:00:00FILE "09 - A Flourish for a Bidding.wav" WAVE TRACK 09 AUDIO TITLE "A Flourish for a Bidding" PERFORMER "Andrew Lumsden: Winchester Cathedral Choir" INDEX 01 00:00:00FILE "10 - Antiphon.wav" WAVE TRACK 10 AUDIO TITLE "Antiphon" PERFORMER "Andrew Lumsden: Winchester Cathedral Choir" INDEX 01 00:00:00FILE "11 - The fear of the Lord.wav" WAVE TRACK 11 AUDIO TITLE "The fear of the Lord" PERFORMER "Andrew Lumsden: Winchester Cathedral Choir" INDEX 01 00:00:00FILE "12 - Exultate Deo.wav" WAVE TRACK 12 AUDIO TITLE "Exultate Deo" PERFORMER "Andrew Lumsden: Winchester Cathedral Choir" INDEX 01 00:00:00
mp3
[teatrix.ru].t7939.torrent 
Торрент: Зарегистрирован [ 2015-10-14 02:42 ] · BD0344B85E709DE40E7D5A1BAC0489F7ED79AC91

Скачать .torrent

Скачать

12 KB

Статус: проверено
Скачан: 0 раз
Размер: 264 MB
terms.php



Быстрый ответ

Имя:

      
Для отправки сообщений необходимо включить JavaScript
Показать сообщения:    

Текущее время: 09-Дек 14:35

Часовой пояс: UTC + 3


Вы можете начинать темы
Вы можете отвечать на сообщения
Вы не можете редактировать свои сообщения
Вы не можете удалять свои сообщения
Вы не можете голосовать в опросах
Вы не можете прикреплять файлы к сообщениям
Вы можете скачивать файлы