(Choral, orchestral) Д.Кабалевский - Реквием • Симфония №4 (дирижёр - Д.Кабалевский) | D.Kabalevsky - Requiem • Symphony No.4 (conductor - D.Kabalevsky) - 1992, FLAC (image+.cue) lossless


Статистика раздачи [Обновить пиров]
Размер:  617 MB   |    Зарегистрирован:  1 год 1 месяц   |    Скачан:  0 раз

Полного источника не было: Никогда

 
   
 
 
 

[Цитировать]

D.KabalevskyREQUIEM | SYMPHONY NO.4Conducted by D.Kabalevsky- Жанр: Choral, orchestral
Страна-производитель диска: England
Год издания диска: 1992
Издатель (лейбл): OLYMPIA
Дата записи: 1956/64
Аудиокодек: FLAC
Тип рипа: image+.cue
Битрейт аудио: lossless
Продолжительность: 2:08'14''
Источник: собственный рип
Наличие сканов в содержимом раздачи: да
Треклист:

CD1

Реквием
Часть I
[1] Интродукция »Помните!«
[2] I. »Вечная слава«
[3] II. Родина
[4] III. »Я не умру«
[5] IV. Марш дивизионов
Часть II
[6] V. Чёрный камень
[7] VI. Материнское сердце
[8] VII. Будущее
[9] VIII. Наши дети
Часть III
[10] Интродукция. В память о погибших

Лог создания рипа

Exact Audio Copy V1.0 beta 3 from 29. August 2011
EAC extraction logfile from 21. June 2014, 20:22
Kabalevsky / Requiem and Symphony No.4 (CD1)
Used drive : PHILIPS CDRW1610A Adapter: 0 ID: 0
Read mode : SecureUtilize accurate stream : YesDefeat audio cache : YesMake use of C2 pointers : No
Read offset correction : 733Overread into Lead-In and Lead-Out : NoFill up missing offset samples with silence : YesDelete leading and trailing silent blocks : NoNull samples used in CRC calculations : YesUsed interface : Native Win32 interface for Win NT & 2000
Used output format : User Defined EncoderSelected bitrate : 1024 kBit/sQuality : HighAdd ID3 tag : NoCommand line compressor : C:\Program Files\FLAC\flac.exeAdditional command line options : -T"COMMENT=rip by el coronel" -8 -V %source%
TOC of the extracted CD
Track | Start | Length | Start sector | End sector --------------------------------------------------------- 1 | 0:00.00 | 3:15.05 | 0 | 14629 2 | 3:15.05 | 11:51.00 | 14630 | 67954 3 | 15:06.05 | 4:28.35 | 67955 | 88089 4 | 19:34.40 | 6:30.65 | 88090 | 117404 5 | 26:05.30 | 4:12.65 | 117405 | 136369 6 | 30:18.20 | 15:39.70 | 136370 | 206864 7 | 45:58.15 | 7:38.20 | 206865 | 241234 8 | 53:36.35 | 3:38.38 | 241235 | 257622 9 | 57:14.73 | 5:47.52 | 257623 | 283699 10 | 63:02.50 | 5:35.30 | 283700 | 308854
Range status and errors
Selected range
Filename D:\Kabalevsky - Requiem and Symphony No.4 (CD1).wav
Peak level 56.4 % Extraction speed 8.7 X Range quality 100.0 % Test CRC 328D2E40 Copy CRC 328D2E40 Copy OK
No errors occurred
End of status report
==== Log checksum 7371F53474FC9C4A5CDF1A13E0A5630AB4F57F06F9BCD858CF99D193F60518D3 ====

Содержание индексной карты (.CUE)

REM GENRE ClassicalREM DATE 1992REM DISCID 9410160AREM COMMENT "ExactAudioCopy v1.0b3"PERFORMER "Dmitri Kabalevsky"TITLE "Kabalevsky - Requiem and Symphony No.4 (CD1)"FILE "Kabalevsky - Requiem and Symphony No.4 (CD1).flac" WAVE TRACK 01 AUDIO TITLE "Requiem: Part I - Introduction" PERFORMER "Moscow Symphony Orchestra - Dmitri Kabalevsky" INDEX 01 00:00:00 TRACK 02 AUDIO TITLE "I. Eternal Glory" PERFORMER "Moscow Symphony Orchestra - Dmitri Kabalevsky" INDEX 00 03:13:53 INDEX 01 03:15:05 TRACK 03 AUDIO TITLE "II. Homeland" PERFORMER "Moscow Symphony Orchestra - Dmitri Kabalevsky" INDEX 01 15:06:05 TRACK 04 AUDIO TITLE "III. I Will Not Die" PERFORMER "Moscow Symphony Orchestra - Dmitri Kabalevsky" INDEX 01 19:34:40 TRACK 05 AUDIO TITLE "IV. The March of Divisions" PERFORMER "Moscow Symphony Orchestra - Dmitri Kabalevsky" INDEX 00 26:01:30 INDEX 01 26:05:30 TRACK 06 AUDIO TITLE "Part II - V. Black Stone" PERFORMER "Moscow Symphony Orchestra - Dmitri Kabalevsky" INDEX 00 30:16:15 INDEX 01 30:18:20 TRACK 07 AUDIO TITLE "VI. The Future" PERFORMER "Moscow Symphony Orchestra - Dmitri Kabalevsky" INDEX 00 45:54:05 INDEX 01 45:58:15 TRACK 08 AUDIO TITLE "VII. The Future" PERFORMER "Moscow Symphony Orchestra - Dmitri Kabalevsky" INDEX 01 53:36:35 TRACK 09 AUDIO TITLE "VIII. Our Children" PERFORMER "Moscow Symphony Orchestra - Dmitri Kabalevsky" INDEX 00 57:14:03 INDEX 01 57:14:73 TRACK 10 AUDIO TITLE "Part III - Introduction. In Memory of the Dead" PERFORMER "Moscow Symphony Orchestra - Dmitri Kabalevsky" INDEX 00 63:00:10 INDEX 01 63:02:50

CD2

Часть III
[1] IX. »Слушайте!« - X. Вечная слава - XI. »Помните!«
Симфония №4
[2] I. Lento. Allegro molto
[3] II. Largo
[4] III. Allegretto capriccioso e con fuoco
[5] IV. Sostenuto assai

Лог создания рипа

Exact Audio Copy V1.0 beta 3 from 29. August 2011
EAC extraction logfile from 21. June 2014, 21:27
Kabalevsky / Requiem and Symphony No.4 (CD2)
Used drive : PHILIPS CDRW1610A Adapter: 0 ID: 0
Read mode : SecureUtilize accurate stream : YesDefeat audio cache : YesMake use of C2 pointers : No
Read offset correction : 733Overread into Lead-In and Lead-Out : NoFill up missing offset samples with silence : YesDelete leading and trailing silent blocks : NoNull samples used in CRC calculations : YesUsed interface : Native Win32 interface for Win NT & 2000
Used output format : User Defined EncoderSelected bitrate : 1024 kBit/sQuality : HighAdd ID3 tag : NoCommand line compressor : C:\Program Files\FLAC\flac.exeAdditional command line options : -T"COMMENT=rip by el coronel" -8 -V %source%
TOC of the extracted CD
Track | Start | Length | Start sector | End sector --------------------------------------------------------- 1 | 0:00.00 | 19:34.43 | 0 | 88092 2 | 19:34.43 | 13:49.57 | 88093 | 150324 3 | 33:24.25 | 11:54.50 | 150325 | 203924 4 | 45:19.00 | 5:31.15 | 203925 | 228764 5 | 50:50.15 | 8:45.33 | 228765 | 268172
Range status and errors
Selected range
Filename D:\Kabalevsky - Requiem and Symphony No.4 (CD2).wav
Peak level 68.2 % Extraction speed 8.1 X Range quality 99.9 % Test CRC AD575BA4 Copy CRC AD575BA4 Copy OK
No errors occurred
End of status report
==== Log checksum B93B01AAC7D5C055F3C46D21F03815A5248CB9B3F28F3B60B62D6131E88BD1A4 ====

Содержание индексной карты (.CUE)

REM GENRE ClassicalREM DATE 1992REM DISCID 2F0DF705REM COMMENT "ExactAudioCopy v1.0b3"PERFORMER "Dmitri Kabalevsky"TITLE "Kabalevsky - Requiem and Symphony No.4 (CD2)"FILE "Kabalevsky - Requiem and Symphony No.4 (CD2).flac" WAVE TRACK 01 AUDIO TITLE "Requiem: IX. Listen - X. Eternal Glory - XI. Remember" PERFORMER "Moscow Symphony Orchestra - Dmitri Kabalevsky" INDEX 01 00:00:00 TRACK 02 AUDIO TITLE "Symphony No.4: I. Lento - Allegro molto" PERFORMER "Leningrad Philharmonic Orchestra - Dmitri Kabalevsky" INDEX 00 19:30:18 INDEX 01 19:34:43 TRACK 03 AUDIO TITLE "II. Largo" PERFORMER "Leningrad Philharmonic Orchestra - Dmitri Kabalevsky" INDEX 00 33:20:40 INDEX 01 33:24:25 TRACK 04 AUDIO TITLE "III. Allegretto capriccioso e con fuoco" PERFORMER "Leningrad Philharmonic Orchestra - Dmitri Kabalevsky" INDEX 00 45:14:03 INDEX 01 45:19:00 TRACK 05 AUDIO TITLE "IV. Sostenuto assai" PERFORMER "Leningrad Philharmonic Orchestra - Dmitri Kabalevsky" INDEX 00 50:46:28 INDEX 01 50:50:15
Исполнители:
Валентина Левко - меццо-сопрано
Владимир Валаитис - баритон

Оркестр Московской Филармонии
Оркестр Ленинградской Филармонии
[Симфония №4]
Дмитрий Кабалевский-»... Реквием написан о погибших, но обращён к живым, рассказывает о смерти, но воспевает жизнь, рождён войной, но всем своим существом устремлён к миру...«
(Из статьи Д.Кабалевского о "Реквиеме" Роберта Рождественского)-
[teatrix.ru].t7940.torrent 
Торрент: Зарегистрирован [ 2015-10-14 02:42 ] · B89B09F50BD6926A35E27537AC82B5DD437568F4

Скачать .torrent

Скачать

13 KB

Статус: проверено
Скачан: 0 раз
Размер: 617 MB
terms.php



Быстрый ответ

Имя:

      
Для отправки сообщений необходимо включить JavaScript
Показать сообщения:    

Текущее время: 06-Дек 22:56

Часовой пояс: UTC + 3


Вы можете начинать темы
Вы можете отвечать на сообщения
Вы не можете редактировать свои сообщения
Вы не можете удалять свои сообщения
Вы не можете голосовать в опросах
Вы не можете прикреплять файлы к сообщениям
Вы можете скачивать файлы