(Classical) Giovanni Sgambati - Requiem, Op. 38 (Joern Wilsing, Stuttgart State Orchestra, Heilbronn Philharmonic Choir) - 1991, FLAC (image+.cue) lossless


Статистика раздачи [Обновить пиров]
Размер:  300 MB   |    Зарегистрирован:  1 год 1 месяц   |    Скачан:  0 раз

Полного источника не было: Никогда

 
   
 
 
 

[Цитировать]

Giovanni Sgambati - Requiem, Op. 38 (Joern Wilsing)
Жанр: Classical
Год издания диска: 1991
Издатель (лейбл): Carus
Номер по каталогу: MC 83.121
Аудиокодек: FLAC
Тип рипа: image+.cue
Битрейт аудио: lossless
Продолжительность: 01:19:24
Источник: скачано из сети
Наличие сканов в содержимом раздачи: да
Треклист:
01. Introitus: Requiem aeternam - Kyrie (Chorus) [0:09:14.68]
02. Sequenz (Chorus) [0:23:33.25]
03. Offertorium: Domine, Jesu Christe - Hostias (Chorus, Baritone) [0:14:25.42]
04. Sanctus - Benedictus (Chorus) [0:05:09.70]
05. Versa est in luctum cythara mea (Baritone) [0:06:24.28]
06. Agnus Dei (Chorus) [0:07:30.12]
07. Libera me (Chorus, Baritone) [0:13:09.03]
Исполнители:
Joern Wilsing,
Stuttgart State Orchestra,
Heilbronn Philharmonic Choir

LOG EAC

Exact Audio Copy V1.0 beta 3 from 29. August 2011
EAC extraction logfile from 8. June 2014, 23:52
Giovanni Sgambati / Requiem, Op. 38
Used drive : TSSTcorpCDDVDW SH-S223C Adapter: 2 ID: 1
Read mode : SecureUtilize accurate stream : YesDefeat audio cache : YesMake use of C2 pointers : No
Read offset correction : 697Overread into Lead-In and Lead-Out : NoFill up missing offset samples with silence : YesDelete leading and trailing silent blocks : NoNull samples used in CRC calculations : YesUsed interface : Native Win32 interface for Win NT & 2000
Used output format : User Defined EncoderSelected bitrate : 1024 kBit/sQuality : HighAdd ID3 tag : NoCommand line compressor : C:\Program Files (x86)\Exact Audio Copy\FLAC\FLAC.EXEAdditional command line options : -V -0 -T "COMMENT=Ripped by Tapaz9" -T "artist=%artist%" -T "title=%title%" -T "album=%albumtitle%" -T "date=%year%" -T "tracknumber=%tracknr%" -T "genre=%genre%" %source%
TOC of the extracted CD
Track | Start | Length | Start sector | End sector---------------------------------------------------------1 | 0:00.00 | 9:14.68 | 0 | 416172 | 9:14.68 | 23:33.25 | 41618 | 1476173 | 32:48.18 | 14:25.42 | 147618 | 2125344 | 47:13.60 | 5:09.70 | 212535 | 2357795 | 52:23.55 | 6:24.28 | 235780 | 2646076 | 58:48.08 | 7:30.12 | 264608 | 2983697 | 66:18.20 | 13:09.03 | 298370 | 357547
Range status and errors
Selected range
Filename F:\Musique\Sgambati, Giovanni\Sgambati_Requiem\Giovanni Sgambati - Requiem, Op. 38.wav
Peak level 99.4 %Extraction speed 14.5 XRange quality 100.0 %Copy CRC C32F4171Copy OK
No errors occurred
End of status report
==== Log checksum E19588FC3BA2B85EECBFCEE040268A0BE6B080D7444041068B99073F4125650D ====
mp3
[teatrix.ru].t7941.torrent 
Торрент: Зарегистрирован [ 2015-10-14 02:42 ] · 2BE44CA2F4603D04B7B450DDD5AC3406A20884F3

Скачать .torrent

Скачать

13 KB

Статус: проверено
Скачан: 0 раз
Размер: 300 MB
terms.php



Быстрый ответ

Имя:

      
Для отправки сообщений необходимо включить JavaScript
Показать сообщения:    

Текущее время: 10-Дек 19:44

Часовой пояс: UTC + 3


Вы можете начинать темы
Вы можете отвечать на сообщения
Вы не можете редактировать свои сообщения
Вы не можете удалять свои сообщения
Вы не можете голосовать в опросах
Вы не можете прикреплять файлы к сообщениям
Вы можете скачивать файлы