(Classical, contemporary) James MacMillan - Tenebrae Responsories and other choral works - The Choir of Westminster Cathedral, London Brass, Martin Baker - 2013, FLAC (image+.cue) lossless


Статистика раздачи [Обновить пиров]
Размер:  269 MB   |    Зарегистрирован:  1 год 1 месяц   |    Скачан:  0 раз

Полного источника не было: Никогда

 
   
 
 
 

[Цитировать]

James MacMillan - Tenebrae Responsories and other choral works - The Choir of Westminster Cathedral, London Brass, Martin Baker
Жанр: Classical, contemporary
Страна-производитель диска: UK
Год издания диска: 2013
Издатель (лейбл): Hyperion
Номер по каталогу: CDA67970
Дата записи: 2012
Аудиокодек: FLAC
Тип рипа: image+.cue
Битрейт аудио: lossless
Продолжительность: 72:58
Источник: собственный рип
Наличие сканов в содержимом раздачи: да
Треклист:
James MacMillan (b.1959)
[1] Tu es Petrus
[2] Dignus est Agnus plainsong
[3]-[5] Tenebrae Responsories
[6] Summae Trinitati
[7] Benedictus Deus
[8] Ave maris stella
[9] Tota pulchra es
[10] After Virtue
[11] Serenity
[12] The Edinburgh Te Deum
[13] Ecce sacerdos magnus
[14] Processional on Tu es Petrus
Исполнители:
The Choir of Westminster Cathedral
London Brass
Peter Stevens
organ
Martin Baker Master of Music

Лог создания рипа

Exact Audio Copy V1.0 beta 3 from 29. August 2011
EAC extraction logfile from 24. May 2014, 1:31
Westminster Cathedral Choir, Martin Baker / MacMillan - Tenebrae Responsories & Other Choral Works
Used drive : HL-DT-STDVDRAM GSA-4083N Adapter: 1 ID: 0
Read mode : SecureUtilize accurate stream : YesDefeat audio cache : YesMake use of C2 pointers : No
Read offset correction : 667Overread into Lead-In and Lead-Out : NoFill up missing offset samples with silence : YesDelete leading and trailing silent blocks : NoNull samples used in CRC calculations : YesUsed interface : Native Win32 interface for Win NT & 2000
Used output format : User Defined EncoderSelected bitrate : 896 kBit/sQuality : HighAdd ID3 tag : NoCommand line compressor : C:\Program Files\Exact Audio Copy\Flac\flac.exeAdditional command line options : -V -8 %source%
TOC of the extracted CD
Track | Start | Length | Start sector | End sector --------------------------------------------------------- 1 | 0:00.00 | 4:12.31 | 0 | 18930 2 | 4:12.31 | 4:04.71 | 18931 | 37301 3 | 8:17.27 | 6:43.20 | 37302 | 67546 4 | 15:00.47 | 6:03.38 | 67547 | 94809 5 | 21:04.10 | 7:57.38 | 94810 | 130622 6 | 29:01.48 | 4:54.05 | 130623 | 152677 7 | 33:55.53 | 5:27.51 | 152678 | 177253 8 | 39:23.29 | 4:27.30 | 177254 | 197308 9 | 43:50.59 | 4:32.23 | 197309 | 217731 10 | 48:23.07 | 4:59.13 | 217732 | 240169 11 | 53:22.20 | 4:46.56 | 240170 | 261675 12 | 58:09.01 | 9:16.68 | 261676 | 303443 13 | 67:25.69 | 3:28.06 | 303444 | 319049 14 | 70:54.00 | 2:02.54 | 319050 | 328253
Range status and errors
Selected range
Filename J:\New Music\CDA67970 - MacMillan - Tenebrae Responsories (Westminster Cathedral Choir, Baker - HYPERION)\MacMillan - Tenebrae Responsories.wav
Peak level 100.0 % Extraction speed 2.7 X Range quality 100.0 % Test CRC 9C483B82 Copy CRC 9C483B82 Copy OK
No errors occurred
AccurateRip summary
Track 1 accurately ripped (confidence 1) [8B1CCDCC] (AR v2)Track 2 accurately ripped (confidence 1) [4296A3FF] (AR v2)Track 3 accurately ripped (confidence 1) [BC8ED166] (AR v2)Track 4 accurately ripped (confidence 1) [8B0437DD] (AR v2)Track 5 accurately ripped (confidence 1) [5DE07B1C] (AR v2)Track 6 accurately ripped (confidence 1) [1A2259D5] (AR v2)Track 7 accurately ripped (confidence 1) [1648EEC9] (AR v2)Track 8 accurately ripped (confidence 1) [7025CD66] (AR v2)Track 9 accurately ripped (confidence 1) [6E7D12B9] (AR v2)Track 10 accurately ripped (confidence 1) [C1F726E3] (AR v2)Track 11 accurately ripped (confidence 1) [4DC669C4] (AR v2)Track 12 accurately ripped (confidence 1) [1ACE685B] (AR v2)Track 13 accurately ripped (confidence 1) [C6883A24] (AR v2)Track 14 accurately ripped (confidence 1) [E8E40B13] (AR v2)
All tracks accurately ripped
End of status report
==== Log checksum 03596E82A16F4B92A54574C1BFF8BED51B0631E74911839C87E998FF3E866550 ====
[teatrix.ru].t7942.torrent 
Торрент: Зарегистрирован [ 2015-10-14 02:42 ] · C820194E53D702AF8D84DD6ECE4F2D9F85F254A8

Скачать .torrent

Скачать

22 KB

Статус: проверено
Скачан: 0 раз
Размер: 269 MB
terms.php



Быстрый ответ

Имя:

      
Для отправки сообщений необходимо включить JavaScript
Показать сообщения:    

Текущее время: 09-Дек 18:29

Часовой пояс: UTC + 3


Вы можете начинать темы
Вы можете отвечать на сообщения
Вы не можете редактировать свои сообщения
Вы не можете удалять свои сообщения
Вы не можете голосовать в опросах
Вы не можете прикреплять файлы к сообщениям
Вы можете скачивать файлы