(Classical) Bach - Christmas Oratorio - Watson, Davies, Gilchrist, Brook; Trinity College Choir, Orchestra of the Age of Enlightenment, Stephen Layton - 2CD - 2013, FLAC (image+.cue) lossless


Статистика раздачи [Обновить пиров]
Размер:  725 MB   |    Зарегистрирован:  1 год 1 месяц   |    Скачан:  0 раз

Полного источника не было: Никогда

 
   
 
 
 

[Цитировать]

Bach - Christmas Oratorio - Watson, Davies, Gilchrist, Brook; Trinity College Choir, Orchestra of the Age of Enlightenment, Stephen Layton
Жанр: Classical
Страна-производитель диска: UK
Год издания диска: 2013
Издатель (лейбл): Hyperion
Номер по каталогу: CDA68031/2
Дата записи: 2013
Аудиокодек: FLAC
Тип рипа: image+.cue
Битрейт аудио: lossless
Продолжительность: 151:49
Источник: собственный рип
Наличие сканов в содержимом раздачи: да
Треклист:
Johann Sebastian Bach (1685-1750)
Weihnachtsoratorium BWV248
CD1
[1]-[9] Part 1: For the First Day of Christmas
[10]-[23] Part 2: For the Second Day of Christmas
[24]-[36] Part 3: For the Third Day of Christmas
CD2
[1]-[7] Part 4: For the Feast of Circumcision
[8]-[18] Part 5: For the First Sunday in the New Year
[19]-[29] Part 6: For the Feast of Epiphany
Исполнители:
Katherine Watson soprano
Iestyn Davies countertenor
James Gilchrist tenor (Evangelist)
Matthew Brook bass
The Choir of Trinity College Cambridge
Orchestra of the Age of Enlightenment
Stephen Layton
conductor

Лог создания рипа: CD1

Exact Audio Copy V1.0 beta 3 from 29. August 2011
EAC extraction logfile from 6. June 2014, 17:31
Orchestra of the Age of Enlightenment, Stephen Layton / Bach - Christmas Oratorio - CD1
Used drive : HL-DT-STDVDRRW GWA-4164B Adapter: 5 ID: 0
Read mode : SecureUtilize accurate stream : YesDefeat audio cache : YesMake use of C2 pointers : No
Read offset correction : 102Overread into Lead-In and Lead-Out : NoFill up missing offset samples with silence : YesDelete leading and trailing silent blocks : NoNull samples used in CRC calculations : YesUsed interface : Native Win32 interface for Win NT & 2000
Used output format : User Defined EncoderSelected bitrate : 896 kBit/sQuality : HighAdd ID3 tag : NoCommand line compressor : C:\Program Files\Exact Audio Copy\FLAC\FLAC.EXEAdditional command line options : -V -8 %source%
TOC of the extracted CD
Track | Start | Length | Start sector | End sector --------------------------------------------------------- 1 | 0:00.00 | 8:09.50 | 0 | 36724 2 | 8:09.50 | 1:13.53 | 36725 | 42252 3 | 9:23.28 | 0:50.56 | 42253 | 46058 4 | 10:14.09 | 5:15.57 | 46059 | 69740 5 | 15:29.66 | 1:22.58 | 69741 | 75948 6 | 16:52.49 | 0:22.07 | 75949 | 77605 7 | 17:14.56 | 3:03.18 | 77606 | 91348 8 | 20:17.74 | 4:44.32 | 91349 | 112680 9 | 25:02.31 | 1:24.01 | 112681 | 118981 10 | 26:26.32 | 5:29.10 | 118982 | 143666 11 | 31:55.42 | 0:34.58 | 143667 | 146274 12 | 32:30.25 | 1:05.26 | 146275 | 151175 13 | 33:35.51 | 0:41.44 | 151176 | 154294 14 | 34:17.20 | 0:48.40 | 154295 | 157934 15 | 35:05.60 | 3:25.58 | 157935 | 173367 16 | 38:31.43 | 0:22.18 | 173368 | 175035 17 | 38:53.61 | 0:40.13 | 175036 | 178048 18 | 39:33.74 | 0:47.74 | 178049 | 181647 19 | 40:21.73 | 10:46.71 | 181648 | 230168 20 | 51:08.69 | 0:11.25 | 230169 | 231018 21 | 51:20.19 | 2:44.24 | 231019 | 243342 22 | 54:04.43 | 0:24.62 | 243343 | 245204 23 | 54:29.30 | 1:27.18 | 245205 | 251747 24 | 55:56.48 | 2:02.29 | 251748 | 260926 25 | 57:59.02 | 0:08.52 | 260927 | 261578 26 | 58:07.54 | 0:45.56 | 261579 | 265009 27 | 58:53.35 | 0:43.19 | 265010 | 268253 28 | 59:36.54 | 0:40.74 | 268254 | 271327 29 | 60:17.53 | 7:53.57 | 271328 | 306859 30 | 68:11.35 | 1:06.51 | 306860 | 311860 31 | 69:18.11 | 5:30.17 | 311861 | 336627 32 | 74:48.28 | 0:27.34 | 336628 | 338686 33 | 75:15.62 | 1:06.26 | 338687 | 343662 34 | 76:22.13 | 0:19.58 | 343663 | 345145 35 | 76:41.71 | 0:41.35 | 345146 | 348255 36 | 77:23.31 | 2:05.49 | 348256 | 357679
Range status and errors
Selected range
Filename D:\temp\Music\CDA68031-2 - Bach - Christmas Oratorio (Soloists, Trinity College Choir, OAE, Layton - HYPERION)\Bach - Christmas Oratorio - CD1.wav
Peak level 99.5 % Extraction speed 3.1 X Range quality 100.0 % Test CRC AAC5340B Copy CRC AAC5340B Copy OK
No errors occurred
AccurateRip summary
Track 1 accurately ripped (confidence 2) [CD08A23F] (AR v2)Track 2 accurately ripped (confidence 2) [B5C94C52] (AR v2)Track 3 accurately ripped (confidence 2) [06CF5A27] (AR v2)Track 4 accurately ripped (confidence 2) [F3F467A6] (AR v2)Track 5 accurately ripped (confidence 2) [C39F2A6D] (AR v2)Track 6 accurately ripped (confidence 2) [E8958EA8] (AR v2)Track 7 accurately ripped (confidence 2) [268BAE5E] (AR v2)Track 8 accurately ripped (confidence 2) [CDFC05F1] (AR v2)Track 9 accurately ripped (confidence 2) [78F073FC] (AR v2)Track 10 accurately ripped (confidence 2) [B4EBAD46] (AR v2)Track 11 accurately ripped (confidence 2) [1708AD78] (AR v2)Track 12 accurately ripped (confidence 2) [F3B849D7] (AR v2)Track 13 accurately ripped (confidence 2) [E846E408] (AR v2)Track 14 accurately ripped (confidence 2) [8886CE19] (AR v2)Track 15 accurately ripped (confidence 2) [B264FB07] (AR v2)Track 16 accurately ripped (confidence 2) [222791EC] (AR v2)Track 17 accurately ripped (confidence 2) [15DDDF20] (AR v2)Track 18 accurately ripped (confidence 2) [A2789FC1] (AR v2)Track 19 accurately ripped (confidence 2) [95626A8E] (AR v2)Track 20 accurately ripped (confidence 2) [B4AA669A] (AR v2)Track 21 accurately ripped (confidence 2) [354A1375] (AR v2)Track 22 accurately ripped (confidence 2) [D918ACF7] (AR v2)Track 23 accurately ripped (confidence 2) [C367021B] (AR v2)Track 24 accurately ripped (confidence 2) [A810F830] (AR v2)Track 25 accurately ripped (confidence 2) [5DC380B1] (AR v2)Track 26 accurately ripped (confidence 2) [74F9E56C] (AR v2)Track 27 accurately ripped (confidence 2) [48B0D2FA] (AR v2)Track 28 accurately ripped (confidence 2) [BA59F573] (AR v2)Track 29 accurately ripped (confidence 2) [61924CCD] (AR v2)Track 30 accurately ripped (confidence 2) [34FCCBD7] (AR v2)Track 31 accurately ripped (confidence 2) [F2DD9481] (AR v2)Track 32 accurately ripped (confidence 2) [AA9ED8B6] (AR v2)Track 33 accurately ripped (confidence 2) [3FBE89DC] (AR v2)Track 34 accurately ripped (confidence 2) [0FCC9281] (AR v2)Track 35 accurately ripped (confidence 2) [52A2EB7A] (AR v2)Track 36 accurately ripped (confidence 2) [85ADAEFA] (AR v2)
All tracks accurately ripped
End of status report
==== Log checksum 14ECEBA6735C0D3D88E39AA3EA8F5A5EB6537F0549FFF9954144B3E968B61CA5 ====

Лог создания рипа: CD2

Exact Audio Copy V1.0 beta 3 from 29. August 2011
EAC extraction logfile from 6. June 2014, 18:21
Orchestra of the Age of Enlightenment, Stephen Layton / Bach - Christmas Oratorio - CD2
Used drive : HL-DT-STDVDRRW GWA-4164B Adapter: 5 ID: 0
Read mode : SecureUtilize accurate stream : YesDefeat audio cache : YesMake use of C2 pointers : No
Read offset correction : 102Overread into Lead-In and Lead-Out : NoFill up missing offset samples with silence : YesDelete leading and trailing silent blocks : NoNull samples used in CRC calculations : YesUsed interface : Native Win32 interface for Win NT & 2000
Used output format : User Defined EncoderSelected bitrate : 896 kBit/sQuality : HighAdd ID3 tag : NoCommand line compressor : C:\Program Files\Exact Audio Copy\FLAC\FLAC.EXEAdditional command line options : -V -8 %source%
TOC of the extracted CD
Track | Start | Length | Start sector | End sector --------------------------------------------------------- 1 | 0:00.00 | 6:18.06 | 0 | 28355 2 | 6:18.06 | 0:35.49 | 28356 | 31029 3 | 6:53.55 | 2:40.49 | 31030 | 43078 4 | 9:34.29 | 5:52.61 | 43079 | 69539 5 | 15:27.15 | 1:31.56 | 69540 | 76420 6 | 16:58.71 | 4:45.30 | 76421 | 97825 7 | 21:44.26 | 1:59.23 | 97826 | 106773 8 | 23:43.49 | 6:41.23 | 106774 | 136871 9 | 30:24.72 | 0:21.38 | 136872 | 138484 10 | 30:46.35 | 2:09.03 | 138485 | 148162 11 | 32:55.38 | 0:52.59 | 148163 | 152121 12 | 33:48.22 | 4:36.10 | 152122 | 172831 13 | 38:24.32 | 0:12.52 | 172832 | 173783 14 | 38:37.09 | 0:32.49 | 173784 | 176232 15 | 39:09.58 | 1:35.31 | 176233 | 183388 16 | 40:45.14 | 5:46.10 | 183389 | 209348 17 | 46:31.24 | 0:29.58 | 209349 | 211581 18 | 47:01.07 | 1:07.57 | 211582 | 216663 19 | 48:08.64 | 5:22.69 | 216664 | 240882 20 | 53:31.58 | 0:43.71 | 240883 | 244178 21 | 54:15.54 | 0:50.22 | 244179 | 247950 22 | 55:06.01 | 4:04.41 | 247951 | 266291 23 | 59:10.42 | 1:09.48 | 266292 | 271514 24 | 60:20.15 | 1:17.24 | 271515 | 277313 25 | 61:37.39 | 0:23.16 | 277314 | 279054 26 | 62:00.55 | 1:45.43 | 279055 | 286972 27 | 63:46.23 | 4:29.00 | 286973 | 307147 28 | 68:15.23 | 0:43.16 | 307148 | 310388 29 | 68:58.39 | 3:17.36 | 310389 | 325199
Range status and errors
Selected range
Filename D:\temp\Music\CDA68031-2 - Bach - Christmas Oratorio (Soloists, Trinity College Choir, OAE, Layton - HYPERION)\Bach - Christmas Oratorio - CD2.wav
Peak level 99.3 % Extraction speed 3.8 X Range quality 100.0 % Test CRC BE4560A9 Copy CRC BE4560A9 Copy OK
No errors occurred
AccurateRip summary
Track 1 accurately ripped (confidence 2) [E7847EF1] (AR v2)Track 2 accurately ripped (confidence 2) [3D19FEDD] (AR v2)Track 3 accurately ripped (confidence 2) [5C040241] (AR v2)Track 4 accurately ripped (confidence 2) [448D9670] (AR v2)Track 5 accurately ripped (confidence 2) [24BDA3D5] (AR v2)Track 6 accurately ripped (confidence 2) [E916C854] (AR v2)Track 7 accurately ripped (confidence 2) [F0D95E47] (AR v2)Track 8 accurately ripped (confidence 2) [18506024] (AR v2)Track 9 accurately ripped (confidence 2) [1A8CF375] (AR v2)Track 10 accurately ripped (confidence 2) [2BEE2712] (AR v2)Track 11 accurately ripped (confidence 2) [85CBCC39] (AR v2)Track 12 accurately ripped (confidence 2) [E95C24A9] (AR v2)Track 13 accurately ripped (confidence 2) [D74C6C50] (AR v2)Track 14 accurately ripped (confidence 2) [BF7A5267] (AR v2)Track 15 accurately ripped (confidence 2) [A18F6B4E] (AR v2)Track 16 accurately ripped (confidence 2) [14786C3A] (AR v2)Track 17 accurately ripped (confidence 2) [8164432C] (AR v2)Track 18 accurately ripped (confidence 2) [2C752A3F] (AR v2)Track 19 accurately ripped (confidence 2) [7E999929] (AR v2)Track 20 accurately ripped (confidence 2) [F1B55401] (AR v2)Track 21 accurately ripped (confidence 2) [A0334C70] (AR v2)Track 22 accurately ripped (confidence 2) [B528AA62] (AR v2)Track 23 accurately ripped (confidence 2) [EB803279] (AR v2)Track 24 accurately ripped (confidence 2) [364D3562] (AR v2)Track 25 accurately ripped (confidence 2) [280B02DB] (AR v2)Track 26 accurately ripped (confidence 2) [3C51806C] (AR v2)Track 27 accurately ripped (confidence 2) [A7BEA64B] (AR v2)Track 28 accurately ripped (confidence 2) [4C7DBC42] (AR v2)Track 29 accurately ripped (confidence 2) [FA293653] (AR v2)
All tracks accurately ripped
End of status report
==== Log checksum 8815F927A06E13D02474E3FF8480FFB5EC50883F6316C3599E11804817719585 ====
[teatrix.ru].t7943.torrent 
Торрент: Зарегистрирован [ 2015-10-14 02:42 ] · ECE143B6A12474B9EF26738FA8DF3F43AD7174D0

Скачать .torrent

Скачать

30 KB

Статус: проверено
Скачан: 0 раз
Размер: 725 MB
terms.php



Быстрый ответ

Имя:

      
Для отправки сообщений необходимо включить JavaScript
Показать сообщения:    

Текущее время: 10-Дек 17:48

Часовой пояс: UTC + 3


Вы можете начинать темы
Вы можете отвечать на сообщения
Вы не можете редактировать свои сообщения
Вы не можете удалять свои сообщения
Вы не можете голосовать в опросах
Вы не можете прикреплять файлы к сообщениям
Вы можете скачивать файлы