(Classical) John Tavener - Essential Tavener (Benedetti,Clein;Layton,Litton,Toms; The Choir of the Temple Church,The Holst Singers) - 2014, FLAC (image+.cue) lossless


Статистика раздачи [Обновить пиров]
Размер:  290 MB   |    Зарегистрирован:  1 год 1 месяц   |    Скачан:  0 раз

Полного источника не было: Никогда

 
   
 
 
 

[Цитировать]

John Tavener - Essential Tavener
(Benedetti,Clein;Layton,Litton,Toms;
The Choir of the Temple Church,The Holst Singers)
John Tavener (1944-2013) Жанр: Classical
Страна-производитель диска: E.U.
Год издания диска: 2014
Издатель (лейбл): Decca
Номер по каталогу: 478 6424
Дата записи: 2003,2006,2007
Аудиокодек: FLAC
Тип рипа: image+.cue
Битрейт аудио: lossless
Продолжительность: 01:21:24
Источник: JVA
Наличие сканов в содержимом раздачи: да
Треклист:
01. The Lamb (Blake) (3:33)
02. The Tyger (Blake) (4:38)
03. Song for Athene (Alleluia. May flights of angels sing Thee to thy rest) (Shakespeare) (5:32)
04. Mother of God, here I stand (for strings)The Veil of the Temple(from the film Children of Men)(3:29)
05. The Dormition of the Mother of God The Protecting Veil (6:50)
06. The Protecting Veil The Protecting Veil (2:41)
07. Today the Virgin (Mother Thekla) (2:39)
08. A Hymn to the Mother of God (2:18)
09. What God is we do not know The Veil of the Temple (3:02)
10. Funeral Ikos (7:43)
11. Threnos (5:49)
12. God is with us (A Christmas proclamation) (5:42)
13. A Christmas Round (1:40)
14. Elizabeth full of grace (12:15)
15. Dhyāna (A song for Nicola) (6:15)
16. Song for Athene (for solo violin and orchestra), arr. Tavener (6:47)

Исполнители

Nicola Benedetti violin (15, 16)
Natalie Clein cello (5, 6, 11)
Ian Le Grice organ (3, 12)
James Vivian organ (14) and assistant conductor
Andrew Rupp baritone (12)
Robert Millett Tibetan bowl (14)
The Choir of the Temple Church (1-3, 7, 8, 10, 12-14)
The Holst Singers (2, 3, 8-10, 12, 14)
English Chamber Orchestra (5, 6, 14)
Brno Philharmonic Orchestra (4)
London Philharmonic Orchestra (15, 16)
Stephen Layton conductor (1-3, 5-10, 12-14)
Andrew Litton conductor (15, 16)
Mikel Toms conductor (4)

Лог создания рипа

Exact Audio Copy V0.99 prebeta 5 from 4. May 2009
Отчёт EAC об извлечении, выполненном 4. июня 2014, 12:35
John TAVENER / Essential TAVENER
Дисковод: _NEC DVD_RW ND-4571A Adapter: 0 ID: 0
Режим чтения : ДостоверностьИспользование точного потока : ДаОтключение кэша аудио : ДаИспользование указателей C2 : Нет
Коррекция смещения при чтении : 48Способность читать области Lead-in и Lead-out : НетЗаполнение пропущенных сэмплов тишиной : ДаУдаление блоков с тишиной в начале и конце : НетПри вычислениях CRC использовались нулевые сэмплы : ДаИнтерфейс : Встроенный Win32-интерфейс для Win NT/2000
Выходной формат : Пользовательский кодировщикВыбранный битрейт : 768 kBit/sКачество : ВысокийДобавление ID3-тэга : НетУтилита сжатия : C:\Program Files\Exact Audio Copy\Flac\flac.exeДополнительные параметры : -6 -V -T "ARTIST=%a" -T "TITLE=%t" -T "ALBUM=%g" -T "DATE=%y" -T "TRACKNUMBER=%n" -T "GENRE=%m" -T "COMMENT=%e" %s -o %d
TOC извлечённого CD
Трек | Старт | Длительность | Начальный сектор | Конечный сектор --------------------------------------------------------------------- 1 | 0:00.00 | 3:36.47 | 0 | 16246 2 | 3:36.47 | 4:41.30 | 16247 | 37351 3 | 8:18.02 | 5:32.55 | 37352 | 62306 4 | 13:50.57 | 3:30.60 | 62307 | 78116 5 | 17:21.42 | 6:49.61 | 78117 | 108852 6 | 24:11.28 | 2:45.10 | 108853 | 121237 7 | 26:56.38 | 2:41.39 | 121238 | 133351 8 | 29:38.02 | 2:19.72 | 133352 | 143848 9 | 31:57.74 | 3:03.40 | 143849 | 157613 10 | 35:01.39 | 7:45.71 | 157614 | 192559 11 | 42:47.35 | 5:50.12 | 192560 | 218821 12 | 48:37.47 | 5:44.02 | 218822 | 244623 13 | 54:21.49 | 1:41.51 | 244624 | 252249 14 | 56:03.25 | 12:11.43 | 252250 | 307117 15 | 68:14.68 | 6:17.62 | 307118 | 335454 16 | 74:32.55 | 6:51.37 | 335455 | 366316
Характеристики диапазона извлечения и сообщения об ошибках
Выбранный диапазон
Имя файла D:\EAC\John TAVENER - Essential TAVENER\John TAVENER - Essential TAVENER.wav
Пиковый уровень 98.8 % Качество диапазона 100.0 % CRC копии 443510A3 Копирование... OK
Ошибок не произошло
AccurateRip: сводка
Трек 1 точность не определена (достоверность 1) [496A86F7], AccurateRip вернул [82C64DC9]Трек 2 точность не определена (достоверность 1) [60067C30], AccurateRip вернул [4EC168D0]Трек 3 точность не определена (достоверность 1) [18F0589C], AccurateRip вернул [69D0482B]Трек 4 точность не определена (достоверность 1) [C98F2E3C], AccurateRip вернул [399611FA]Трек 5 точность не определена (достоверность 1) [918AB946], AccurateRip вернул [EF849C62]Трек 6 точность не определена (достоверность 1) [5DA447DB], AccurateRip вернул [8E6C5609]Трек 7 точность не определена (достоверность 1) [42841B80], AccurateRip вернул [44B6E79D]Трек 8 точность не определена (достоверность 1) [9A8948AC], AccurateRip вернул [870E0CDE]Трек 9 точность не определена (достоверность 1) [862B4A99], AccurateRip вернул [B2714F29]Трек 10 точность не определена (достоверность 1) [36EBE8F3], AccurateRip вернул [76A42A7E]Трек 11 точность не определена (достоверность 1) [54E53372], AccurateRip вернул [0A0CC3DB]Трек 12 точность не определена (достоверность 1) [A44A1411], AccurateRip вернул [F9A74EED]Трек 13 точность не определена (достоверность 1) [49735FBD], AccurateRip вернул [380DC0EE]Трек 14 точность не определена (достоверность 1) [2E048B01], AccurateRip вернул [945D4EE6]Трек 15 точность не определена (достоверность 1) [09F6B887], AccurateRip вернул [243538D4]Трек 16 точность не определена (достоверность 1) [FDB9683D], AccurateRip вернул [1E64F045]
Ни один трек не прошёл проверки на точностьВ вашей базе может быть иной вариант штамповки диска
Конец отчёта

Лог проверки качества

Скриншот спектра частот

[teatrix.ru].t7945.torrent 
Торрент: Зарегистрирован [ 2015-10-14 02:42 ] · 0BAAE2763D57DF1EA88DA7C4EB00BAC0EC48655B

Скачать .torrent

Скачать

12 KB

Статус: проверено
Скачан: 0 раз
Размер: 290 MB
terms.php



Быстрый ответ

Имя:

      
Для отправки сообщений необходимо включить JavaScript
Показать сообщения:    

Текущее время: 06-Дек 17:05

Часовой пояс: UTC + 3


Вы можете начинать темы
Вы можете отвечать на сообщения
Вы не можете редактировать свои сообщения
Вы не можете удалять свои сообщения
Вы не можете голосовать в опросах
Вы не можете прикреплять файлы к сообщениям
Вы можете скачивать файлы