(Classical) Felix Bartholdy Mendelssohn - Geistliche Und Weltliche Chorwerke - Sacred And Secular Vocal Works (Regensburger Domspatzen, Georg Ratzinger) - 2009 / 1995, FLAC (image+.cue) lossless


Статистика раздачи [Обновить пиров]
Размер:  394 MB   |    Зарегистрирован:  1 год 1 месяц   |    Скачан:  0 раз

Полного источника не было: Никогда

 
   
 
 
 

[Цитировать]

Felix Bartholdy Mendelssohn - Geistliche Und Weltliche Chorwerke - Sacred And Secular Vocal Works (Regensburger Domspatzen, Georg Ratzinger)
Жанр: Classical
Год издания диска: 2009 / 1995
Издатель (лейбл): Ars Musici
Номер по каталогу: 232188
Аудиокодек: FLAC
Тип рипа: image+.cue
Битрейт аудио: lossless
Продолжительность: 01’11"20
Источник: скачано из сети
Наличие сканов в содержимом раздачи: да
Исполнители:
Regensburger Domspatzen
Georg Ratzinger
Треклист:
01. Deutsche Liturgie - I. Kyrie eleison (1:05)
02. II. Ehre sei Gott in der Hohe (3:55)
03. III. Heilig (1:27)
04. Laudate pueri - I. Chor: Laudate pueri (3:39)
05. II. Terzett- Beati omnes (2:33)
06. Warum toben die Heiden (6:44)
07. Richte mich Gott (4:05)
08. Mitten wir im Leben sind (7:21)
09. Veni Domine (4:03)
10. Sechs Sprache- I. Im Advent (1:31)
11. II. Weihnachten (1:25)
12. III. Am Neujahrstage (2:05)
13. IV. In der Passionszeit (1:28)
14. V. Am Karfreitag (1:17)
15. VI. Am Himmelfahrtstage (1:32)
16. Dominica II post pascha- I. Chor- Surrexit pastor bonus (2:44)
17. II. Duett- Tulerunt Dominum meum (2:31)
18. III. Alt-Solo & Chor- Surrexit Christus spes mea (2:59)
19. Lieder fur gemischten Chor ('Im Freien zu singen') - I. Mailied (3:05)
20. II. Die Primel (1:46)
21. III. Lerchengesang (2:18)
22. IV. Morgengebet (2:15)
23. V. Fruhzeitiger Fruhling (4:01)
24. VI. Die Nachtigall (1:32)
25. VII. Jagdlied (3:40)

LOG EAC

Exact Audio Copy V1.0 beta 3 from 29. August 2011
EAC extraction logfile from 15. August 2013, 14:29
Regensburger Domspatzen - Georg Ratzinger / Mendelssohn Bartholdy: Geistliche Und Weltliche Chorwerke
Used drive : PIONEER BD-RW BDR-206 Adapter: 0 ID: 2
Read mode : SecureUtilize accurate stream : YesDefeat audio cache : YesMake use of C2 pointers : No
Read offset correction : 667Overread into Lead-In and Lead-Out : NoFill up missing offset samples with silence : YesDelete leading and trailing silent blocks : NoNull samples used in CRC calculations : YesUsed interface : Native Win32 interface for Win NT & 2000
Used output format : User Defined EncoderSelected bitrate : 1024 kBit/sQuality : HighAdd ID3 tag : YesCommand line compressor : C:\Program Files\FLAC\flac.exeAdditional command line options : -5 -T "Artist=%artist%" -T "Title=%title%" -T "Album=%albumtitle%" -T "Date=%year%" -T "Tracknumber=%tracknr%" -T "Genre=%genre%" %source% -o %dest%
TOC of the extracted CD
Track | Start | Length | Start sector | End sector---------------------------------------------------------1 | 0:00.00 | 1:07.16 | 0 | 50402 | 1:07.16 | 3:55.18 | 5041 | 226833 | 5:02.34 | 1:27.08 | 22684 | 292164 | 6:29.42 | 3:39.20 | 29217 | 456615 | 10:08.62 | 2:33.25 | 45662 | 571616 | 12:42.12 | 6:44.53 | 57162 | 875147 | 19:26.65 | 4:05.58 | 87515 | 1059478 | 23:32.48 | 7:21.63 | 105948 | 1390859 | 30:54.36 | 4:03.18 | 139086 | 15732810 | 34:57.54 | 1:31.54 | 157329 | 16420711 | 36:29.33 | 1:25.07 | 164208 | 17058912 | 37:54.40 | 2:05.32 | 170590 | 17999613 | 39:59.72 | 1:28.49 | 179997 | 18664514 | 41:28.46 | 1:17.30 | 186646 | 19245015 | 42:46.01 | 1:32.33 | 192451 | 19938316 | 44:18.34 | 2:44.53 | 199384 | 21173617 | 47:03.12 | 2:31.66 | 211737 | 22312718 | 49:35.03 | 2:59.42 | 223128 | 23659419 | 52:34.45 | 3:05.33 | 236595 | 25050220 | 55:40.03 | 1:46.01 | 250503 | 25845321 | 57:26.04 | 2:18.27 | 258454 | 26883022 | 59:44.31 | 2:15.64 | 268831 | 27901923 | 62:00.20 | 4:01.21 | 279020 | 29711524 | 66:01.41 | 1:32.12 | 297116 | 30402725 | 67:33.53 | 3:38.52 | 304028 | 320429
Range status and errors
Selected range
Filename F:\=== VINYL RIPS ===\=== EAC===\X FRESH RIP\Mendelssohn- Regensburger Domspatzen, Ratzinger - Geistliche Und Weltliche Chorwerke.wav
Peak level 99.2 %Extraction speed 1.4 XRange quality 100.0 %Test CRC 9A223B89Copy CRC 9A223B89Copy OK
No errors occurred
AccurateRip summary
Track 1 not present in databaseTrack 2 not present in databaseTrack 3 not present in databaseTrack 4 not present in databaseTrack 5 not present in databaseTrack 6 not present in databaseTrack 7 not present in databaseTrack 8 not present in databaseTrack 9 not present in databaseTrack 10 not present in databaseTrack 11 not present in databaseTrack 12 not present in databaseTrack 13 not present in databaseTrack 14 not present in databaseTrack 15 not present in databaseTrack 16 not present in databaseTrack 17 not present in databaseTrack 18 not present in databaseTrack 19 not present in databaseTrack 20 not present in databaseTrack 21 not present in databaseTrack 22 not present in databaseTrack 23 not present in databaseTrack 24 not present in databaseTrack 25 not present in database
None of the tracks are present in the AccurateRip database
End of status report
---- CUETools DB Plugin V2.1.3
[CTDB TOCID: dbd7g7A1Ygo7hAhxtE_p7DZkHh8-] disk not present in database, Submit result: dbd7g7A1Ygo7hAhxtE_p7DZkHh8- has been uploaded
==== Log checksum 117683C5F7275E4365A24977F8059E35BAA9785348BDCBB5624D215E526AD44D ====
mp3
[teatrix.ru].t7946.torrent 
Торрент: Зарегистрирован [ 2015-10-14 02:42 ] · 42A51FC7F6FDE135B08FE1C28B31B5A5DA3E1294

Скачать .torrent

Скачать

18 KB

Статус: проверено
Скачан: 0 раз
Размер: 394 MB
terms.php



Быстрый ответ

Имя:

      
Для отправки сообщений необходимо включить JavaScript
Показать сообщения:    

Текущее время: 05-Дек 07:23

Часовой пояс: UTC + 3


Вы можете начинать темы
Вы можете отвечать на сообщения
Вы не можете редактировать свои сообщения
Вы не можете удалять свои сообщения
Вы не можете голосовать в опросах
Вы не можете прикреплять файлы к сообщениям
Вы можете скачивать файлы