(Classical) Mozart- Sacred Music (Exsultate, jubilate; Mass in C Coronation; Church Sonata No.16 in C; Vesperae solennes de Dominica/Confessore; Kiri Te Kanawa, Vienna Boys\' Choir, VSO, Harrer; LSO, Colin Davis) - 1990, FLAC (tracks+.cue) lossless


Статистика раздачи [Обновить пиров]
Размер:  353 MB   |    Зарегистрирован:  1 год 1 месяц   |    Скачан:  0 раз

Полного источника не было: Никогда

 
   
 
 
 

[Цитировать]

Mozart- Sacred Music (Exsultate, jubilate; Mass in C Coronation; Church Sonata No.16 in C; Vesperae solennes de Dominica/Confessore; Kiri Te Kanawa, Vienna Boys' Choir, VSO, Harrer; LSO, Colin Davis)
Жанр: Classical
Год издания диска: 1990
Издатель (лейбл): Elite Classics
Номер по каталогу: AS-164-A
Аудиокодек: FLAC
Тип рипа: tracks+.cue
Битрейт аудио: lossless
Продолжительность: 76'40"'
Источник: собственный рип
Наличие сканов в содержимом раздачи: да
Треклист:
1. Exsultate, jubilate - I. Exsultate, jubilate (4:31)
2. II. Fulget amica dies (0:48)
3. III. Tu virginum corona (7:25)
4. IV. Alleluja (2:35)
5. Mass in C Coronation - I. Kyrie (2:48)
6. II. Gloria (4:49)
7. III. Credo (6:43)
8. IV. Sanctus (1:35)
9. V. Benedictus (3:14)
10. VI. Agnus Dei (6:16)
11. Church Sonata No.16 in C (4:43)
12. Vesperae solennes de Dominica - Laudate Dominum (4:12)
13. Missa (solemnis) in C - I. Kyrie (2:31)
14. II. Gloria (2:58)
15. III. Credo (4:43)
16. IV. Sanctus (2:18)
17. V. Benedictus (2:59)
18. VI. Agnus Dei (6:19)
19. Vesperae solennes de Confessore - Laudate Dominum (5:13)
Исполнители:
Kiri Te Kanawa
Vienna Boys' Choir
Vienna Symphony Orchestra
Uwe Christian Harrer
London Symphony Chorus
London Symphony Orchestra
Colin Davis

LOG EAC CD:

Exact Audio Copy V1.0 beta 3 from 29. August 2011
EAC extraction logfile from 15. May 2014, 0:30
Kiri Te Kanawa / Mozart- Sacred Music
Used drive : PIONEER DVD-RW DVR-221L Adapter: 0 ID: 0
Read mode : Secure
Utilize accurate stream : Yes
Defeat audio cache : Yes
Make use of C2 pointers : No
Read offset correction : 6
Overread into Lead-In and Lead-Out : No
Fill up missing offset samples with silence : Yes
Delete leading and trailing silent blocks : No
Null samples used in CRC calculations : Yes
Used interface : Native Win32 interface for Win NT & 2000
Gap handling : Appended to previous track
Used output format : User Defined Encoder
Selected bitrate : 768 kBit/s
Quality : High
Add ID3 tag : No
Command line compressor : C:\Program Files\Exact Audio Copy\Flac\flac.exe
Additional command line options : -6 -V -T "ARTIST=%artist%" -T "TITLE=%title%" -T "ALBUM=%albumtitle%" -T "DATE=%year%" -T "TRACKNUMBER=%tracknr%" -T "GENRE=%genre%" -T "COMMENT=%comment%" -T "ALBUMARTIST=%albuminterpret%" -T "COMPOSER=%composer%" -T "DISCNUMBER=%cdnumber%" -T "TOTALDISCS=%totalcds%" -T "TOTALTRACKS=%numtracks%" %source% -o %dest%
TOC of the extracted CD
Track | Start | Length | Start sector | End sector
---------------------------------------------------------
1 | 0:00.32 | 4:31.00 | 32 | 20356
2 | 4:31.32 | 0:48.00 | 20357 | 23956
3 | 5:19.32 | 7:25.63 | 23957 | 57394
4 | 12:45.20 | 2:35.12 | 57395 | 69031
5 | 15:20.32 | 2:48.00 | 69032 | 81631
6 | 18:08.32 | 4:49.00 | 81632 | 103306
7 | 22:57.32 | 6:43.00 | 103307 | 133531
8 | 29:40.32 | 1:35.00 | 133532 | 140656
9 | 31:15.32 | 3:14.00 | 140657 | 155206
10 | 34:29.32 | 6:16.00 | 155207 | 183406
11 | 40:45.32 | 4:43.00 | 183407 | 204631
12 | 45:28.32 | 4:12.00 | 204632 | 223531
13 | 49:40.32 | 2:31.00 | 223532 | 234856
14 | 52:11.32 | 2:58.00 | 234857 | 248206
15 | 55:09.32 | 4:43.00 | 248207 | 269431
16 | 59:52.32 | 2:18.00 | 269432 | 279781
17 | 62:10.32 | 2:59.00 | 279782 | 293206
18 | 65:09.32 | 6:19.00 | 293207 | 321631
19 | 71:28.32 | 5:13.00 | 321632 | 345106
Track 1
Filename E:\EAC\01 Exsultate, jubilate - I. Exsultate, jubilate.wav
Pre-gap length 0:00:02.32
Peak level 82.7 %
Extraction speed 3.1 X
Track quality 100.0 %
Test CRC 62649528
Copy CRC 62649528
Cannot be verified as accurate (confidence 7) [F9021E2E], AccurateRip returned [0A75464F] (AR v2)
Copy OK
Track 2
Filename E:\EAC\02 II. Fulget amica dies.wav
Pre-gap length 0:00:02.00
Peak level 44.5 %
Extraction speed 2.0 X
Track quality 100.0 %
Test CRC EAF9E482
Copy CRC EAF9E482
Cannot be verified as accurate (confidence 7) [2E0F0CFD], AccurateRip returned [EA3E3FAF] (AR v2)
Copy OK
Track 3
Filename E:\EAC\03 III. Tu virginum corona.wav
Peak level 59.2 %
Extraction speed 3.2 X
Track quality 99.9 %
Test CRC 5DA2A706
Copy CRC 5DA2A706
Cannot be verified as accurate (confidence 7) [650FE607], AccurateRip returned [BBF93EBD] (AR v2)
Copy OK
Track 4
Filename E:\EAC\04 IV. Alleluja.wav
Peak level 83.4 %
Extraction speed 3.5 X
Track quality 100.0 %
Test CRC 254096B2
Copy CRC 254096B2
Cannot be verified as accurate (confidence 7) [DA89E068], AccurateRip returned [95FD0771] (AR v2)
Copy OK
Track 5
Filename E:\EAC\05 Mass in C Coronation - I. Kyrie.wav
Pre-gap length 0:00:10.00
Peak level 89.0 %
Extraction speed 2.6 X
Track quality 99.9 %
Test CRC AF62E997
Copy CRC AF62E997
Cannot be verified as accurate (confidence 7) [C3A8488C], AccurateRip returned [CE70971E] (AR v2)
Copy OK
Track 6
Filename E:\EAC\06 II. Gloria.wav
Pre-gap length 0:00:03.00
Peak level 80.3 %
Extraction speed 4.3 X
Track quality 100.0 %
Test CRC 8A2B1950
Copy CRC 8A2B1950
Cannot be verified as accurate (confidence 7) [C6DE85CF], AccurateRip returned [FBA8FAAD] (AR v2)
Copy OK
Track 7
Filename E:\EAC\07 III. Credo.wav
Pre-gap length 0:00:03.00
Peak level 97.7 %
Extraction speed 4.7 X
Track quality 100.0 %
Test CRC D5D43B97
Copy CRC D5D43B97
Cannot be verified as accurate (confidence 7) [57C5813E], AccurateRip returned [F4D24C36] (AR v2)
Copy OK
Track 8
Filename E:\EAC\08 IV. Sanctus.wav
Pre-gap length 0:00:06.00
Peak level 87.3 %
Extraction speed 3.8 X
Track quality 100.0 %
Test CRC 2D1397A3
Copy CRC 2D1397A3
Cannot be verified as accurate (confidence 7) [5817380B], AccurateRip returned [8C3AB6EF] (AR v2)
Copy OK
Track 9
Filename E:\EAC\09 V. Benedictus.wav
Pre-gap length 0:00:04.00
Peak level 79.6 %
Extraction speed 4.6 X
Track quality 100.0 %
Test CRC 3662CBB2
Copy CRC 3662CBB2
Cannot be verified as accurate (confidence 7) [74663AC5], AccurateRip returned [C38F9B84] (AR v2)
Copy OK
Track 10
Filename E:\EAC\10 VI. Agnus Dei.wav
Pre-gap length 0:00:04.00
Peak level 80.8 %
Extraction speed 5.2 X
Track quality 100.0 %
Test CRC 733273BF
Copy CRC 733273BF
Cannot be verified as accurate (confidence 7) [547F1AFC], AccurateRip returned [199A026F] (AR v2)
Copy OK
Track 11
Filename E:\EAC\11 Church Sonata No.16 in C.wav
Pre-gap length 0:00:08.00
Peak level 68.8 %
Extraction speed 5.3 X
Track quality 100.0 %
Test CRC D930047D
Copy CRC D930047D
Cannot be verified as accurate (confidence 7) [A93F2A74], AccurateRip returned [65EA2D4A] (AR v2)
Copy OK
Track 12
Filename E:\EAC\12 Vesperae solennes de Dominica - Laudate Dominum.wav
Pre-gap length 0:00:10.00
Peak level 68.2 %
Extraction speed 4.2 X
Track quality 99.9 %
Test CRC 69EFD57B
Copy CRC 69EFD57B
Cannot be verified as accurate (confidence 7) [63B52389], AccurateRip returned [35CB1ADB] (AR v2)
Copy OK
Track 13
Filename E:\EAC\13 Missa (solemnis) in C - I. Kyrie.wav
Pre-gap length 0:00:10.00
Peak level 95.5 %
Extraction speed 5.1 X
Track quality 100.0 %
Test CRC 4FF71B12
Copy CRC 4FF71B12
Cannot be verified as accurate (confidence 7) [50FFBAD4], AccurateRip returned [22385D7D] (AR v2)
Copy OK
Track 14
Filename E:\EAC\14 II. Gloria.wav
Pre-gap length 0:00:01.00
Peak level 96.1 %
Extraction speed 5.4 X
Track quality 100.0 %
Test CRC 70D2B154
Copy CRC 70D2B154
Cannot be verified as accurate (confidence 7) [F283D55F], AccurateRip returned [0A04C9B7] (AR v2)
Copy OK
Track 15
Filename E:\EAC\15 III. Credo.wav
Pre-gap length 0:00:01.00
Peak level 76.0 %
Extraction speed 5.9 X
Track quality 100.0 %
Test CRC D46A93E2
Copy CRC D46A93E2
Cannot be verified as accurate (confidence 7) [8DA377B1], AccurateRip returned [71B3393A] (AR v2)
Copy OK
Track 16
Filename E:\EAC\16 IV. Sanctus.wav
Pre-gap length 0:00:03.00
Peak level 73.5 %
Extraction speed 5.3 X
Track quality 100.0 %
Test CRC 4070BD4F
Copy CRC 4070BD4F
Cannot be verified as accurate (confidence 7) [292A1488], AccurateRip returned [C1722558] (AR v2)
Copy OK
Track 17
Filename E:\EAC\17 V. Benedictus.wav
Pre-gap length 0:00:02.00
Peak level 87.1 %
Extraction speed 5.8 X
Track quality 100.0 %
Test CRC 3100E0C6
Copy CRC 3100E0C6
Cannot be verified as accurate (confidence 7) [F031280E], AccurateRip returned [83538924] (AR v2)
Copy OK
Track 18
Filename E:\EAC\18 VI. Agnus Dei.wav
Pre-gap length 0:00:02.00
Peak level 97.7 %
Extraction speed 6.5 X
Track quality 100.0 %
Test CRC 900D02FB
Copy CRC 900D02FB
Cannot be verified as accurate (confidence 7) [D3E91B41], AccurateRip returned [E88550FA] (AR v2)
Copy OK
Track 19
Filename E:\EAC\19 Vesperae solennes de Confessore - Laudate Dominum.wav
Pre-gap length 0:00:09.00
Peak level 61.6 %
Extraction speed 6.6 X
Track quality 100.0 %
Test CRC D312C3AF
Copy CRC D312C3AF
Cannot be verified as accurate (confidence 7) [27B3D034], AccurateRip returned [B0F2B11E] (AR v2)
Copy OK
No tracks could be verified as accurate
You may have a different pressing from the one(s) in the database
No errors occurred
End of status report
==== Log checksum 4BC3174CDF7D18963C5AD19B5165F70EAC6998F051809E78A3EA7094A76787E6 ====

LOG (.CUE):

REM GENRE Classical
REM DATE 2002
REM DISCID 0C11F913
REM COMMENT "ExactAudioCopy v1.0b3"
PERFORMER "Kiri Te Kanawa"
TITLE "Mozart- Sacred Music"
FILE "01 Exsultate, jubilate - I. Exsultate, jubilate.wav" WAVE
TRACK 01 AUDIO
TITLE "Exsultate, jubilate - I. Exsultate, jubilate"
PERFORMER "Kiri Te Kanawa"
PREGAP 00:00:32
INDEX 01 00:00:00
TRACK 02 AUDIO
TITLE "II. Fulget amica dies"
PERFORMER "Kiri Te Kanawa"
INDEX 00 04:29:00
FILE "02 II. Fulget amica dies.wav" WAVE
INDEX 01 00:00:00
FILE "03 III. Tu virginum corona.wav" WAVE
TRACK 03 AUDIO
TITLE "III. Tu virginum corona"
PERFORMER "Kiri Te Kanawa"
INDEX 01 00:00:00
FILE "04 IV. Alleluja.wav" WAVE
TRACK 04 AUDIO
TITLE "IV. Alleluja"
PERFORMER "Kiri Te Kanawa"
INDEX 01 00:00:00
TRACK 05 AUDIO
TITLE "Mass in C Coronation - I. Kyrie"
PERFORMER "Kiri Te Kanawa"
INDEX 00 02:25:12
FILE "05 Mass in C Coronation - I. Kyrie.wav" WAVE
INDEX 01 00:00:00
TRACK 06 AUDIO
TITLE "II. Gloria"
PERFORMER "Kiri Te Kanawa"
INDEX 00 02:45:00
FILE "06 II. Gloria.wav" WAVE
INDEX 01 00:00:00
TRACK 07 AUDIO
TITLE "III. Credo"
PERFORMER "Kiri Te Kanawa"
INDEX 00 04:46:00
FILE "07 III. Credo.wav" WAVE
INDEX 01 00:00:00
TRACK 08 AUDIO
TITLE "IV. Sanctus"
PERFORMER "Kiri Te Kanawa"
INDEX 00 06:37:00
FILE "08 IV. Sanctus.wav" WAVE
INDEX 01 00:00:00
TRACK 09 AUDIO
TITLE "V. Benedictus"
PERFORMER "Kiri Te Kanawa"
INDEX 00 01:31:00
FILE "09 V. Benedictus.wav" WAVE
INDEX 01 00:00:00
TRACK 10 AUDIO
TITLE "VI. Agnus Dei"
PERFORMER "Kiri Te Kanawa"
INDEX 00 03:10:00
FILE "10 VI. Agnus Dei.wav" WAVE
INDEX 01 00:00:00
TRACK 11 AUDIO
TITLE "Church Sonata No.16 in C"
PERFORMER "Kiri Te Kanawa"
INDEX 00 06:08:00
FILE "11 Church Sonata No.16 in C.wav" WAVE
INDEX 01 00:00:00
TRACK 12 AUDIO
TITLE "Vesperae solennes de Dominica - Laudate Dominum"
PERFORMER "Kiri Te Kanawa"
INDEX 00 04:33:00
FILE "12 Vesperae solennes de Dominica - Laudate Dominum.wav" WAVE
INDEX 01 00:00:00
TRACK 13 AUDIO
TITLE "Missa (solemnis) in C - I. Kyrie"
PERFORMER "Kiri Te Kanawa"
INDEX 00 04:02:00
FILE "13 Missa (solemnis) in C - I. Kyrie.wav" WAVE
INDEX 01 00:00:00
TRACK 14 AUDIO
TITLE "II. Gloria"
PERFORMER "Kiri Te Kanawa"
INDEX 00 02:30:00
FILE "14 II. Gloria.wav" WAVE
INDEX 01 00:00:00
TRACK 15 AUDIO
TITLE "III. Credo"
PERFORMER "Kiri Te Kanawa"
INDEX 00 02:57:00
FILE "15 III. Credo.wav" WAVE
INDEX 01 00:00:00
TRACK 16 AUDIO
TITLE "IV. Sanctus"
PERFORMER "Kiri Te Kanawa"
INDEX 00 04:40:00
FILE "16 IV. Sanctus.wav" WAVE
INDEX 01 00:00:00
TRACK 17 AUDIO
TITLE "V. Benedictus"
PERFORMER "Kiri Te Kanawa"
INDEX 00 02:16:00
FILE "17 V. Benedictus.wav" WAVE
INDEX 01 00:00:00
TRACK 18 AUDIO
TITLE "VI. Agnus Dei"
PERFORMER "Kiri Te Kanawa"
INDEX 00 02:57:00
FILE "18 VI. Agnus Dei.wav" WAVE
INDEX 01 00:00:00
TRACK 19 AUDIO
TITLE "Vesperae solennes de Confessore - Laudate Dominum"
PERFORMER "Kiri Te Kanawa"
INDEX 00 06:10:00
FILE "19 Vesperae solennes de Confessore - Laudate Dominum.wav" WAVE
INDEX 01 00:00:00
mp3
[teatrix.ru].t7947.torrent 
Торрент: Зарегистрирован [ 2015-10-14 02:42 ] · 7FF642B679AEFF0AC0B71192C47D6F0B4E389519

Скачать .torrent

Скачать

16 KB

Статус: проверено
Скачан: 0 раз
Размер: 353 MB
terms.php



Быстрый ответ

Имя:

      
Для отправки сообщений необходимо включить JavaScript
Показать сообщения:    

Текущее время: 09-Дек 08:52

Часовой пояс: UTC + 3


Вы можете начинать темы
Вы можете отвечать на сообщения
Вы не можете редактировать свои сообщения
Вы не можете удалять свои сообщения
Вы не можете голосовать в опросах
Вы не можете прикреплять файлы к сообщениям
Вы можете скачивать файлы