(Classical/Choral) Валентин Сильвестров - Реквием для Ларисы / Valentin Silvestrov - Requiem for Larissa (Капелла \'Думка\', Евгений Савчук, Национальный симфонический оркестр Украины, Владимир Сиренко) ECM - 2004, FLAC (image+.cue) lossles


Статистика раздачи [Обновить пиров]
Размер:  209 MB   |    Зарегистрирован:  1 год 1 месяц   |    Скачан:  1 раз

Полного источника не было: 1 месяц 4 дня

 
   
 
 
 

[Цитировать]

Валентин Сильвестров - Реквием для Ларисы / Valentin Silvestrov - Requiem for Larissa
Жанр: Classical/Choral
Страна-производитель диска: Германия
Год издания диска: 2004
Издатель (лейбл): ECM
Номер по каталогу: 1778
Дата записи: 2001
Аудиокодек: FLAC
Тип рипа: image+.cue
Битрейт аудио: lossless
Продолжительность: 52:32
Источник: собственный рип
Наличие сканов в содержимом раздачи: да
Треклист:
Валентин Сильвестров / Valentin Silvestrov (*1937)
Реквием для Ларисы / Requiem for Larissa (1997-1999)
для смешанного хора и оркестра / for mixed choir and orchestra
[1] I Largo 6:32
[2] II Adagio - Moderato - Allegro 9:10
[3] III Largo - Allegro moderato 9:52
[4] IV Largo 5:36
[5] V Andante - Moderato 9:20
[6] VI Largo 5:54
[7] VII Allegro moderato 6:05
Исполнители:
Национальная заслуженная академическая капелла Украины «Думка»
Хормейстер - Евгений Савчук
Национальный симфонический оркестр Украины
Дирижер - Владимир Сиренко

Лог создания рипа

Exact Audio Copy V1.0 beta 3 from 29. August 2011
Отчёт EAC об извлечении, выполненном 19. октября 2013, 22:15
National Symphony Orchestra of Ukraine, Volodymyr Sirenko / Valentin Silvestrov - Requiem for Larissa
Дисковод: HL-DT-STDVDRAM GT33N Adapter: 1 ID: 0
Режим чтения : ДостоверностьИспользование точного потока : ДаОтключение кэша аудио : ДаИспользование указателей C2 : Нет
Коррекция смещения при чтении : 103Способность читать области Lead-in и Lead-out : НетЗаполнение пропущенных сэмплов тишиной : ДаУдаление блоков с тишиной в начале и конце : НетПри вычислениях CRC использовались нулевые сэмплы : ДаИнтерфейс : Встроенный Win32-интерфейс для Win NT/2000
Выходной формат : Пользовательский кодировщикВыбранный битрейт : 1024 kBit/sКачество : ВысокийДобавление ID3-тега : ДаУтилита сжатия : C:\Program Files (x86)\Exact Audio Copy\Flac\flac.exeДополнительные параметры : -8 -V -T "ALBUMARTIST=%albumartist%" -T "ALBUM=%albumtitle%" -T "DATE=%year%" -T "TRACKTOTAL=%numtracks%" -T "GENRE=%genre%" -T "COMMENT=%comment%" -T "PERFORMER=%albuminterpret%" -T "COMPOSER=%composer%" %source% -o %dest%
TOC извлечённого CD
Трек | Старт | Длительность | Начальный сектор | Конечный сектор --------------------------------------------------------------------- 1 | 0:00.00 | 6:32.30 | 0 | 29429 2 | 6:32.30 | 9:10.68 | 29430 | 70747 3 | 15:43.23 | 9:52.07 | 70748 | 115154 4 | 25:35.30 | 5:36.53 | 115155 | 140407 5 | 31:12.08 | 9:20.02 | 140408 | 182409 6 | 40:32.10 | 5:54.73 | 182410 | 209032 7 | 46:27.08 | 6:05.52 | 209033 | 236459
Характеристики диапазона извлечения и сообщения об ошибках
Выбранный диапазон
Имя файла E:\Музыка\Silvestrov\Valentin Silvestrov - Requiem for Larissa.wav
Пиковый уровень 100.0 % Скорость извлечения 1.9 X Качество диапазона 100.0 % CRC теста 5CEEA22F CRC копии 5CEEA22F Копирование... OK
Ошибок не произошло
AccurateRip: сводка
Трек 1 : извлечено точно (доверие 3) [BAB4EF44] (AR v1)Трек 2 : извлечено точно (доверие 3) [A91E7440] (AR v1)Трек 3 : извлечено точно (доверие 3) [980EA6A3] (AR v1)Трек 4 : извлечено точно (доверие 3) [98C0B292] (AR v1)Трек 5 : извлечено точно (доверие 3) [56C2EB70] (AR v1)Трек 6 : извлечено точно (доверие 3) [C664A558] (AR v1)Трек 7 : извлечено точно (доверие 3) [AE112195] (AR v1)
Все треки извлечены точно
Конец отчёта
==== Контрольная сумма отчёта 74D81503BD1069C5E5ED441A3447452441EE3F69D9A047747E31B62109B6AEE2 ====

Содержание индексной карты (.CUE)

REM GENRE ClassicalREM DATE 2004REM DISCID 6F0C5007REM COMMENT "ExactAudioCopy v1.0b3"PERFORMER "National Symphony Orchestra of Ukraine, Volodymyr Sirenko"TITLE "Valentin Silvestrov - Requiem for Larissa"FILE "Valentin Silvestrov - Requiem for Larissa.flac" WAVE TRACK 01 AUDIO TITLE "Requiem for Larissa: I. Largo" PERFORMER "National Symphony Orchestra of Ukraine, Volodymyr Sirenko" INDEX 01 00:00:00 TRACK 02 AUDIO TITLE "Requiem for Larissa: II. Adagio - Moderato - Allegro" PERFORMER "National Symphony Orchestra of Ukraine, Volodymyr Sirenko" INDEX 01 06:32:30 TRACK 03 AUDIO TITLE "Requiem for Larissa: III. Largo - Allegro moderato" PERFORMER "National Symphony Orchestra of Ukraine, Volodymyr Sirenko" INDEX 01 15:43:23 TRACK 04 AUDIO TITLE "Requiem for Larissa: IV. Largo" PERFORMER "National Symphony Orchestra of Ukraine, Volodymyr Sirenko" INDEX 01 25:35:30 TRACK 05 AUDIO TITLE "Requiem for Larissa: V. Andante - Moderato" PERFORMER "National Symphony Orchestra of Ukraine, Volodymyr Sirenko" INDEX 01 31:12:08 TRACK 06 AUDIO TITLE "Requiem for Larissa: VI. Largo" PERFORMER "National Symphony Orchestra of Ukraine, Volodymyr Sirenko" INDEX 01 40:32:10 TRACK 07 AUDIO TITLE "Requiem for Larissa: VII. Allegro moderato" PERFORMER "National Symphony Orchestra of Ukraine, Volodymyr Sirenko" INDEX 01 46:27:08
[teatrix.ru].t7948.torrent 
Торрент: Зарегистрирован [ 2015-10-14 02:42 ] · 45841987A54C5981FD4AE5A7B8B05268EF9D9C6E

Скачать .torrent

Скачать

34 KB

Статус: проверено
Скачан: 1 раз
Размер: 209 MB
terms.php



Быстрый ответ

Имя:

      
Для отправки сообщений необходимо включить JavaScript
Показать сообщения:    

Текущее время: 07-Дек 19:21

Часовой пояс: UTC + 3


Вы можете начинать темы
Вы можете отвечать на сообщения
Вы не можете редактировать свои сообщения
Вы не можете удалять свои сообщения
Вы не можете голосовать в опросах
Вы не можете прикреплять файлы к сообщениям
Вы можете скачивать файлы