(Classical) Antonio Vivaldi - Gloria RV 589; Joseph Haydn - The Seven Last Words («Гнесинские виртуозы», Хохлов; Детский хор Центра эстетического воспитания «Моцарт»,Струве; Тонха - виолончель) - 1995, WavPack (iso.wv) lossless


Статистика раздачи [Обновить пиров]
Размер:  336 MB   |    Зарегистрирован:  1 год 1 месяц   |    Скачан:  0 раз

Полного источника не было: Никогда

 
   
 
 
 

[Цитировать]

Antonio Vivaldi - Gloria RV 589;
Joseph Haydn - The Seven Last Words
(«Гнесинские виртуозы», Хохлов; Детский хор Центра эстетического воспитания «Моцарт»,Струве; Тонха - виолончель)
Жанр: Сlassical
Страна-производитель диска: Germany
Год издания диска: 1995
Издатель (лейбл): RMG Records
Номер по каталогу: СD 94022
Дата записи: 1993,1995
Аудиокодек: WavPack
Тип рипа: iso.wv
Битрейт аудио: lossless
Продолжительность: 01:15:33
Источник: shatterhand
Наличие сканов в содержимом раздачи: да
Треклист:
Antonio Vivaldi (1678-1741)
Gloria RV 589 in D major for soloists,chorus and orchestra
01. Gloria in excelsis Deo (Allegro) (2:40)
02. Et in terra pax hominibus (Andante) (6:11)
03. Laudamus te (Allegro) (2:19)
04. Gratias agimus tibi (Adagio) (0:30)
05. Propter magnam gloriam tuam (Allegro) (0:55)
06. Domine Deus, Rex caelestis (Largo) (4:14)
07. Domine Fili unigenite (Allegro) (2:20)
08. Domine deus, Agnus Dei (Adagio) (4:44)
09. Qui tollis peccata mundi (Adagio) (1:32)
10. Qui sedes ad dexteram Patris ( Allegro ) (2:09)
11. Quoniam tu solus Sanctus ( Allegro ) (0:55)
12. Cum Sancto Spiritu ( Allegro ) (2:54)
Joseph Haydn (1732-1809)
The Seven Last Words
(Arranged for cello and chamber orchestra by Vladimir Tonkha)
13. L'lntroduzione (Adagio) (5:08)
14. Sonata I (Largo) (4:49)
15. Sonata II (Grave) (5:09)
16. Sonata III (Grave) (6:09)
17. Sonata IV (Largo) (4:57)
18. Sonata V (Adagio) (5:43)
19. Sonata VI (Lento) (5:02)
20. Sonata VII (Largo) (4:12)
21. Il Terremoto (Presto) (2:02)
Исполнители:
Soloists: Anastasiya Bakastova (soprano) 3,6
Ekaterina Ponomareva (contralto) 8,10
Alexey Ogrinchyk (oboe ) 6
Children choir of Aesthetic education «Mozart» center
Leader: Maria Struve
Moscow Chamber Orchestra of The Gnessin Music Lyceum
«Gnessins' virtuosos» Mikhail Khokhlov conductor
Soloist: Vladimir Tonkha (cello) 13-21
Conductor: Mikhail Khokhlov

Перечень файлов (содержимое) контейнера в текстовом виде.

1. Содержимое CUE-файла.
2. Отчёт ЕАС.
3. Аудиофайл (.wv)
4. Сканы: буклет, диск, (полные) JPEG;
5. тех. данные
6. Сканы front, CD, Back формат jpeg

Лог создания рипа

Exact Audio Copy V1.0 beta 3 from 29. August 2011
EAC extraction logfile from 15. February 2014, 10:09
Гнесинские виртуозы / И.Гайдн, А.Вивальди
Used drive : TSSTcorpCDDVDW SH-S223F Adapter: 0 ID: 1
Read mode : SecureUtilize accurate stream : YesDefeat audio cache : YesMake use of C2 pointers : No
Read offset correction : 6Overread into Lead-In and Lead-Out : NoFill up missing offset samples with silence : YesDelete leading and trailing silent blocks : NoNull samples used in CRC calculations : YesUsed interface : Native Win32 interface for Win NT & 2000
Used output format : User Defined EncoderSelected bitrate : 1024 kBit/sQuality : HighAdd ID3 tag : NoCommand line compressor : C:\Program Files\Exact Audio Copy\wavpack.exeAdditional command line options : -hm %source% %dest%
TOC of the extracted CD
Track | Start | Length | Start sector | End sector --------------------------------------------------------- 1 | 0:00.00 | 2:44.47 | 0 | 12346 2 | 2:44.47 | 6:14.38 | 12347 | 40434 3 | 8:59.10 | 2:21.30 | 40435 | 51039 4 | 11:20.40 | 0:30.20 | 51040 | 53309 5 | 11:50.60 | 0:57.12 | 53310 | 57596 6 | 12:47.72 | 4:12.30 | 57597 | 76526 7 | 17:00.27 | 2:24.08 | 76527 | 87334 8 | 19:24.35 | 4:46.30 | 87335 | 108814 9 | 24:10.65 | 1:32.35 | 108815 | 115749 10 | 25:43.25 | 2:09.35 | 115750 | 125459 11 | 27:52.60 | 0:53.45 | 125460 | 129479 12 | 28:46.30 | 3:00.25 | 129480 | 143004 13 | 31:46.55 | 5:11.70 | 143005 | 166399 14 | 36:58.50 | 4:56.32 | 166400 | 188631 15 | 41:55.07 | 5:12.50 | 188632 | 212081 16 | 47:07.57 | 6:14.25 | 212082 | 240156 17 | 53:22.07 | 5:03.70 | 240157 | 262951 18 | 58:26.02 | 5:48.23 | 262952 | 289074 19 | 64:14.25 | 5:07.50 | 289075 | 312149 20 | 69:22.00 | 4:15.40 | 312150 | 331314 21 | 73:37.40 | 2:03.25 | 331315 | 340564
Range status and errors
Selected range
Filename F:\iso\Гнесинские виртуозы - И.Гайдн, А.Вивальди\Гнесинские виртуозы - И.Гайдн, А.Вивальди.wav
Peak level 94.4 % Extraction speed 5.5 X Range quality 100.0 % Test CRC 2A6DFCA8 Copy CRC 2A6DFCA8 Copy OK
No errors occurred
AccurateRip summary
Track 1 not present in databaseTrack 2 not present in databaseTrack 3 not present in databaseTrack 4 not present in databaseTrack 5 not present in databaseTrack 6 not present in databaseTrack 7 not present in databaseTrack 8 not present in databaseTrack 9 not present in databaseTrack 10 not present in databaseTrack 11 not present in databaseTrack 12 not present in databaseTrack 13 not present in databaseTrack 14 not present in databaseTrack 15 not present in databaseTrack 16 not present in databaseTrack 17 not present in databaseTrack 18 not present in databaseTrack 19 not present in databaseTrack 20 not present in databaseTrack 21 not present in database
None of the tracks are present in the AccurateRip database
End of status report
==== Log checksum C327E5A2B2D3C24981CB3889217E62FD6E6E67BCD5A6E8C8FCB4806875CAD340 ====

Содержание индексной карты (.CUE)

REM GENRE "Classical"REM DATE 1995REM DISCID 2811BC15REM COMMENT "ExactAudioCopy v1.0b3"CATALOG 0000000000000PERFORMER "Гнесинские виртуозы"TITLE "И.Гайдн, А.Вивальди"FILE "Gnesinskie virtuozy - 1995 - I.Gajdn, A.Vival'di (RMG CD 94022) [NL+].wv" WAVE TRACK 01 AUDIO TITLE "Antonio Vivaldi, Gloria Rv 589, Gloria In Excelsis Deo (Allegro)" PERFORMER "Гнесинские виртуозы" INDEX 01 00:00:00 TRACK 02 AUDIO TITLE "Et Interra Pax Hominibus (Andante)" PERFORMER "Гнесинские виртуозы" INDEX 01 02:44:47 TRACK 03 AUDIO TITLE "Laudamus Te (Allegro)" PERFORMER "Гнесинские виртуозы" INDEX 01 08:59:10 TRACK 04 AUDIO TITLE "Gratias Agimus Tibi (Adagio)" PERFORMER "Гнесинские виртуозы" INDEX 01 11:20:40 TRACK 05 AUDIO TITLE "Propter Magnam Gloriam Tuam (Allegro)" PERFORMER "Гнесинские виртуозы" INDEX 01 11:50:60 TRACK 06 AUDIO TITLE "Domine Deus, Rex Caelestis (Largo)" PERFORMER "Гнесинские виртуозы" INDEX 01 12:47:72 TRACK 07 AUDIO TITLE "Domine Fili Unugenite (Allegro)" PERFORMER "Гнесинские виртуозы" INDEX 01 17:00:27 TRACK 08 AUDIO TITLE "Domine Deus, Agnus Dei (Adagio)" PERFORMER "Гнесинские виртуозы" INDEX 01 19:24:35 TRACK 09 AUDIO TITLE "Qui Tollis Peccata Mundi (Adagio)" PERFORMER "Гнесинские виртуозы" INDEX 01 24:10:65 TRACK 10 AUDIO TITLE "Qui Sedes Ad Dexteram Ratris (Allegro)" PERFORMER "Гнесинские виртуозы" INDEX 01 25:43:25 TRACK 11 AUDIO TITLE "Quoniam Tu Solus Sanctus (Allegro)" PERFORMER "Гнесинские виртуозы" INDEX 01 27:52:60 TRACK 12 AUDIO TITLE "Cum Sancto Spiritu (Allegro)" PERFORMER "Гнесинские виртуозы" INDEX 01 28:46:30 TRACK 13 AUDIO TITLE "Joseph Haydn, The Seven Last Words, L'introduzione (Adagio)" PERFORMER "Гнесинские виртуозы" INDEX 00 31:39:32 INDEX 01 31:46:55 TRACK 14 AUDIO TITLE "Sonata I (Largo)" PERFORMER "Гнесинские виртуозы" INDEX 01 36:58:50 TRACK 15 AUDIO TITLE "Sonata Ii (Grave)" PERFORMER "Гнесинские виртуозы" INDEX 01 41:55:07 TRACK 16 AUDIO TITLE "Sonata Iii (Grave)" PERFORMER "Гнесинские виртуозы" INDEX 01 47:07:57 TRACK 17 AUDIO TITLE "Sonata Iv (Largo)" PERFORMER "Гнесинские виртуозы" INDEX 01 53:22:07 TRACK 18 AUDIO TITLE "Sonata V (Adagio)" PERFORMER "Гнесинские виртуозы" INDEX 01 58:26:02 TRACK 19 AUDIO TITLE "Sonata Vi (Lento)" PERFORMER "Гнесинские виртуозы" INDEX 01 64:14:25 TRACK 20 AUDIO TITLE "Sonata Vii (Largo)" PERFORMER "Гнесинские виртуозы" INDEX 01 69:22:00 TRACK 21 AUDIO TITLE "Il Terremoto (Presto)" PERFORMER "Гнесинские виртуозы" INDEX 01 73:37:40

Лог проверки качества

Скриншот спектра частот

[teatrix.ru].t7951.torrent 
Торрент: Зарегистрирован [ 2015-10-14 02:42 ] · 005ECE44C3E01AFF1724440F464A897765032A7B

Скачать .torrent

Скачать

14 KB

Статус: проверено
Скачан: 0 раз
Размер: 336 MB
terms.php



Быстрый ответ

Имя:

      
Для отправки сообщений необходимо включить JavaScript
Показать сообщения:    

Текущее время: 07-Дек 15:34

Часовой пояс: UTC + 3


Вы можете начинать темы
Вы можете отвечать на сообщения
Вы не можете редактировать свои сообщения
Вы не можете удалять свои сообщения
Вы не можете голосовать в опросах
Вы не можете прикреплять файлы к сообщениям
Вы можете скачивать файлы