(Choral) George Frideric Handel - 4 Coronation Anthems [Zadok the Priest etc], Dixit Dominus, Anthem For the Foundling Hospital, "Utrecht" Te Deum & Jubilate (Willcocks, Cleobury, Hill, Preston) - 1997, FLAC (image+.cue) lossless


Статистика раздачи [Обновить пиров]
Размер:  683 MB   |    Зарегистрирован:  1 год 1 месяц   |    Скачан:  1 раз

Полного источника не было: 6 месяцев 4 дня

 
   
 
 
 

[Цитировать]

George Frideric Handel
Coronation Anthems • Dixit Dominus
Anthem For the Foundling Hospital •"Utrecht" Te Deum & Jubilate
Жанр: Choral
Страна-производитель диска: Germany
Год издания диска: 1997
Издатель (лейбл): Decca
Номер по каталогу: 455 041-2
Дата записи: 1963-1993
Аудиокодек: FLAC
Тип рипа: image+.cue
Битрейт аудио: lossless
Продолжительность: 2:27:07
Источник: собственный рип
Исполнители, дата записи::
*The Choir of King's College, Cambridge
English Chamber Orchestra
David Willcocks
- conductor
Rec. July-August 1963
**The Choir of King's College, Cambridge
English Chamber Orchestra
Stephen Cleobury
- conductor
Rec. December 1986
***Choir Of Winchester Cathedral
The Brandenburg Consort
David Hill
- conductor
Rec. February 1993
****Emma Kirkby, Judith Nelson - sopranos
Rogers Covey-Crump, Paul Elliott - tenors
David Thomas - bass
Choir of Christ Church Cathedral, Oxford
The Academy of Ancient Music
Simon Preston
- conductor
Rec. July 1979
Треклист:

CD1: Coronation Anthems* / Dixit Dominus**

4 Coronation Anthems*
1. Zadok the Priest (Coronation Anthem No.1, HWV 258) 5:54
2. My Heart is Inditing (Coronation Anthem No.4, HWV 261): 1. My heart is inditing 3:05
3. 2. King's daughters were among thy honorable women 3:04
4. 3. Upon thy right hand 3:30
5. 4. Kings shall be thy nursing fathers 3:03
6. Let Thy Hand be Strengthened (Coronation Anthem No.2, HWV 259): 1. Let thy hand be strengthened 3:25
7. 2. Let justice and judgement 3:50
8. 3. Alleluja! 2:03
9. The King shall rejoice (Coronation Anthem No.3, HWV 260): 1. Introduction - The King shall rejoice 3:07
10. 2. Exceeding glad shall he be 3:05
11. 3. Glory and worship hast thou laid 3:01
12. 4. Alleluja 2:44
Dixit Dominus, HWV 232**
13. 1. Dixit Dominus 6:19
14. 2. Virgam virtutis tuae 3:15
15. 3. Tecum principium in die virtutis 2:52
16. 4. Juravit Dominus 2:40
17. 5. Tu es sacerdos in aeternum 1:45
18. 6. Dominus a dextris tuis 7:23
19. 7. De torrente in via bibet 3:19
20. 8. Gloria Patri, et Filio 7:11

CD2: Anthem For the Foundling Hospital*** / "Utrecht" Te Deum & Jubilate****

Anthem For the Foundling Hospital, HWV 268***
1. Blessed Are They That Considereth The Poor 4:19
2. Blessed Are They...They Deliver The Poor 2:59
3. O God Who From the Suckling's Mouth 4:00
4. The Charitable Shall Be Had 3:40
5. Comfort Them, O Lord 5:11
6. The People Will Tell Of Their Wisdom 3:31
7. Hallelujah! 4:17
"Utrecht" Te Deum & Jubilate (HWV 278 & 279)****
8. "Utrecht" Te Deum: We praise thee, O God 4:01
9. To thee all Angels cry aloud To thee Cherubin and Seraphin 2:06
10. The glorious company of the Apostles Thou art the King of Glory 5:15
11. When thou took'st upon thee / When thou hadst overcome Thou sittest at the right hand of God 3:43
12. We believe that thou shalt come 2:45
13. Day by day / And we worship thy Name 2:27
14. Vouchsafe, O Lord 2:54
15. O Lord, in thee have I trusted 1:18
16. Jubilate: O be joyful in the Lord 2:06
17. Serve the Lord with gladness 2:10
18. Be ye sure that the Lord he is God 2:39
19. O go your way into his gates 3:40
20. For the Lord is gracious 3:34
21. Glory be to the Father 5:07

Лог создания рипа

Лог создания рипа CD1

Exact Audio Copy V1.0 beta 3 from 29. August 2011
EAC extraction logfile from 6. May 2014, 20:30
The Choir of St.King's College / Coronation Anthems CD1
Used drive : TSSTcorp CDDVDW Adapter: 0 ID: 0
Read mode : Secure
Utilize accurate stream : Yes
Defeat audio cache : Yes
Make use of C2 pointers : No
Read offset correction : 6
Overread into Lead-In and Lead-Out : No
Fill up missing offset samples with silence : Yes
Delete leading and trailing silent blocks : No
Null samples used in CRC calculations : Yes
Used interface : Installed external ASPI interface
Used output format : User Defined Encoder
Selected bitrate : 768 kBit/s
Quality : High
Add ID3 tag : No
Command line compressor : C:\Program Files (x86)\Exact Audio Copy\FLAC\FLAC.EXE
Additional command line options : -6 -V -T "ARTIST=%artist%" -T "TITLE=%title%" -T "ALBUM=%albumtitle%" -T "DATE=%year%" -T "TRACKNUMBER=%tracknr%" -T "GENRE=%genre%" -T "COMMENT=%comment%" -T "BAND=%albuminterpret%" -T "ALBUMARTIST=%albuminterpret%" -T "COMPOSER=%composer%" %haslyrics%--tag-from-file=LYRICS="%lyricsfile%"%haslyrics% -T "DISCNUMBER=%cdnumber%" -T "TOTALDISCS=%totalcds%" -T "TOTALTRACKS=%numtracks%" %hascover%--picture="%coverfile%"%hascover% %source% -o %dest%
TOC of the extracted CD
Track | Start | Length | Start sector | End sector
---------------------------------------------------------
1 | 0:00.32 | 5:59.50 | 32 | 27006
2 | 6:00.07 | 3:05.70 | 27007 | 40951
3 | 9:06.02 | 3:04.13 | 40952 | 54764
4 | 12:10.15 | 3:30.02 | 54765 | 70516
5 | 15:40.17 | 3:07.20 | 70517 | 84561
6 | 18:47.37 | 3:25.30 | 84562 | 99966
7 | 22:12.67 | 3:50.70 | 99967 | 117286
8 | 26:03.62 | 2:08.50 | 117287 | 126936
9 | 28:12.37 | 3:07.63 | 126937 | 141024
10 | 31:20.25 | 3:05.55 | 141025 | 154954
11 | 34:26.05 | 3:01.10 | 154955 | 168539
12 | 37:27.15 | 2:50.55 | 168540 | 181344
13 | 40:17.70 | 6:19.00 | 181345 | 209769
14 | 46:36.70 | 3:15.22 | 209770 | 224416
15 | 49:52.17 | 2:52.13 | 224417 | 237329
16 | 52:44.30 | 2:40.30 | 237330 | 249359
17 | 55:24.60 | 1:45.20 | 249360 | 257254
18 | 57:10.05 | 7:23.12 | 257255 | 290491
19 | 64:33.17 | 3:19.65 | 290492 | 305481
20 | 67:53.07 | 7:11.70 | 305482 | 337876
Range status and errors
Selected range
Filename C:\RIP\Handel - Coronation Anthems CD1.wav
Peak level 96.4 %
Extraction speed 3.4 X
Range quality 100.0 %
Test CRC 2AEDC0B0
Copy CRC 2AEDC0B0
Copy OK
No errors occurred
AccurateRip summary
Track 1 accurately ripped (confidence 2) [F09EE601] (AR v2)
Track 2 accurately ripped (confidence 2) [F5EB8AF6] (AR v2)
Track 3 accurately ripped (confidence 2) [62BBAD86] (AR v2)
Track 4 accurately ripped (confidence 2) [4AC825C2] (AR v2)
Track 5 accurately ripped (confidence 2) [C41CC92A] (AR v2)
Track 6 accurately ripped (confidence 2) [E4456501] (AR v2)
Track 7 accurately ripped (confidence 2) [161F9975] (AR v2)
Track 8 accurately ripped (confidence 2) [763A6F3B] (AR v2)
Track 9 accurately ripped (confidence 2) [5F60A51D] (AR v2)
Track 10 accurately ripped (confidence 2) [A89D3099] (AR v2)
Track 11 accurately ripped (confidence 2) [C63F7001] (AR v2)
Track 12 accurately ripped (confidence 2) [E2B324F7] (AR v2)
Track 13 accurately ripped (confidence 2) [4BDD5F66] (AR v2)
Track 14 accurately ripped (confidence 2) [62FB2F85] (AR v2)
Track 15 accurately ripped (confidence 2) [03353F35] (AR v2)
Track 16 accurately ripped (confidence 2) [03A74DD1] (AR v2)
Track 17 accurately ripped (confidence 2) [85260013] (AR v2)
Track 18 accurately ripped (confidence 2) [D69AEA34] (AR v2)
Track 19 accurately ripped (confidence 2) [BD45E2FD] (AR v2)
Track 20 accurately ripped (confidence 2) [FB7DDE37] (AR v2)
All tracks accurately ripped
End of status report
==== Log checksum 903F7EB28F9467ECD7B66CD258C215DEEF76DC69FC6D713B658898D9F8796F40 ====

Лог создания рипа CD2

Exact Audio Copy V1.0 beta 3 from 29. August 2011
EAC extraction logfile from 6. May 2014, 21:19
The Choir of Winchester Cathedral / Coronation Anthems CD 2
Used drive : TSSTcorp CDDVDW Adapter: 0 ID: 0
Read mode : Secure
Utilize accurate stream : Yes
Defeat audio cache : Yes
Make use of C2 pointers : No
Read offset correction : 6
Overread into Lead-In and Lead-Out : No
Fill up missing offset samples with silence : Yes
Delete leading and trailing silent blocks : No
Null samples used in CRC calculations : Yes
Used interface : Installed external ASPI interface
Used output format : User Defined Encoder
Selected bitrate : 768 kBit/s
Quality : High
Add ID3 tag : No
Command line compressor : C:\Program Files (x86)\Exact Audio Copy\FLAC\FLAC.EXE
Additional command line options : -6 -V -T "ARTIST=%artist%" -T "TITLE=%title%" -T "ALBUM=%albumtitle%" -T "DATE=%year%" -T "TRACKNUMBER=%tracknr%" -T "GENRE=%genre%" -T "COMMENT=%comment%" -T "BAND=%albuminterpret%" -T "ALBUMARTIST=%albuminterpret%" -T "COMPOSER=%composer%" %haslyrics%--tag-from-file=LYRICS="%lyricsfile%"%haslyrics% -T "DISCNUMBER=%cdnumber%" -T "TOTALDISCS=%totalcds%" -T "TOTALTRACKS=%numtracks%" %hascover%--picture="%coverfile%"%hascover% %source% -o %dest%
TOC of the extracted CD
Track | Start | Length | Start sector | End sector
---------------------------------------------------------
1 | 0:00.32 | 4:19.05 | 32 | 19461
2 | 4:19.37 | 2:59.35 | 19462 | 32921
3 | 7:18.72 | 4:00.73 | 32922 | 50994
4 | 11:19.70 | 3:40.02 | 50995 | 67496
5 | 14:59.72 | 5:11.28 | 67497 | 90849
6 | 20:11.25 | 3:31.07 | 90850 | 106681
7 | 23:42.32 | 4:24.43 | 106682 | 126524
8 | 28:07.00 | 4:01.27 | 126525 | 144626
9 | 32:08.27 | 2:06.00 | 144627 | 154076
10 | 34:14.27 | 5:15.73 | 154077 | 177774
11 | 39:30.25 | 3:43.20 | 177775 | 194519
12 | 43:13.45 | 2:45.30 | 194520 | 206924
13 | 45:59.00 | 2:27.37 | 206925 | 217986
14 | 48:26.37 | 2:54.48 | 217987 | 231084
15 | 51:21.10 | 1:23.55 | 231085 | 237364
16 | 52:44.65 | 2:06.20 | 237365 | 246834
17 | 54:51.10 | 2:10.70 | 246835 | 256654
18 | 57:02.05 | 2:39.25 | 256655 | 268604
19 | 59:41.30 | 3:40.35 | 268605 | 285139
20 | 63:21.65 | 3:34.40 | 285140 | 301229
21 | 66:56.30 | 5:07.20 | 301230 | 324274
Range status and errors
Selected range
Filename C:\RIP\Handel - Coronation Anthems CD2.wav
Peak level 96.6 %
Extraction speed 3.4 X
Range quality 100.0 %
Test CRC 5FB41D67
Copy CRC 5FB41D67
Copy OK
No errors occurred
AccurateRip summary
Track 1 accurately ripped (confidence 2) [355CFCEB] (AR v2)
Track 2 accurately ripped (confidence 2) [E54CDF1F] (AR v2)
Track 3 accurately ripped (confidence 2) [6B263E28] (AR v2)
Track 4 accurately ripped (confidence 2) [C55454F8] (AR v2)
Track 5 accurately ripped (confidence 2) [44CEDA8E] (AR v2)
Track 6 accurately ripped (confidence 2) [DBF51F88] (AR v2)
Track 7 accurately ripped (confidence 2) [6708FACB] (AR v2)
Track 8 accurately ripped (confidence 2) [7214770B] (AR v2)
Track 9 accurately ripped (confidence 2) [1A7F0B56] (AR v2)
Track 10 accurately ripped (confidence 2) [7EBADC8D] (AR v2)
Track 11 accurately ripped (confidence 2) [54E7E623] (AR v2)
Track 12 accurately ripped (confidence 2) [F794ABDE] (AR v2)
Track 13 accurately ripped (confidence 2) [994C21FD] (AR v2)
Track 14 accurately ripped (confidence 2) [77C9A33F] (AR v2)
Track 15 accurately ripped (confidence 2) [2761EE70] (AR v2)
Track 16 accurately ripped (confidence 2) [5CACEB95] (AR v2)
Track 17 accurately ripped (confidence 2) [866F1EB1] (AR v2)
Track 18 accurately ripped (confidence 2) [D2791788] (AR v2)
Track 19 accurately ripped (confidence 2) [94466DD0] (AR v2)
Track 20 accurately ripped (confidence 2) [5564BB3E] (AR v2)
Track 21 accurately ripped (confidence 2) [EE34CBF5] (AR v2)
All tracks accurately ripped
End of status report
==== Log checksum 787E846AE08D0D4092E972F419A6DAB0F466BA9DCEC555F8755F30BCA70B137E ====
[teatrix.ru].t7952.torrent 
Торрент: Зарегистрирован [ 2015-10-14 02:42 ] · E1D66509C92BF8EB90FB812CF3375605158389F3

Скачать .torrent

Скачать

15 KB

Статус: проверено
Скачан: 1 раз
Размер: 683 MB
terms.php



Быстрый ответ

Имя:

      
Для отправки сообщений необходимо включить JavaScript
Показать сообщения:    

Текущее время: 06-Дек 18:59

Часовой пояс: UTC + 3


Вы можете начинать темы
Вы можете отвечать на сообщения
Вы не можете редактировать свои сообщения
Вы не можете удалять свои сообщения
Вы не можете голосовать в опросах
Вы не можете прикреплять файлы к сообщениям
Вы можете скачивать файлы