(Classical) Alessandro Stradella - Ester - Piccollo, Franzetti, Norrington, Ristori, Armanino; Il Concento, Luca Franco Ferrari - 2012, FLAC (image+.cue) lossless


Статистика раздачи [Обновить пиров]
Размер:  348 MB   |    Зарегистрирован:  1 год 1 месяц   |    Скачан:  0 раз

Полного источника не было: Никогда

 
   
 
 
 

[Цитировать]

Alessandro Stradella - Ester - Piccollo, Franzetti, Norrington, Ristori, Armanino; Il Concento, Luca Franco Ferrari
Жанр: Classical, oratorio
Год издания диска: 2012
Издатель (лейбл): Brilliant Classics
Номер по каталогу: 94297
Дата записи: 2001
Аудиокодек: FLAC
Тип рипа: image+.cue
Битрейт аудио: lossless
Продолжительность: 67:51
Источник: собственный рип
Наличие сканов в содержимом раздачи: да
Треклист:
Alessandro Stradella (1639–1682)
Ester, liberatrice del popolo Hebreo
Oratorio in two parts
Libretto by Lelio Orsini
First recording
[1]-[26] Prima Parte
[27]-[49] Seconda Parte
Исполнители:
Ester (Esther) Silvia Piccollo
Speranza Celeste (Heavenly Hope) Elisa Franzetti
Mardocheo (Mordecai) Vicky Norrington
Aman (Haman) Riccardo Ristori
Assuero (Ahasuerus) Matteo Armanino
Un’ebrea (A Jewish Woman) Debora Parodi
Testo prima parte Francesco Lambertini
Testo seconda parte Francesca Rota
Il Concento
Luca Franco Ferrari

Лог создания рипа

Exact Audio Copy V1.0 beta 3 from 29. August 2011
EAC extraction logfile from 2. May 2014, 16:31
Il Concento, Luca Franco Ferrari / Stradella - Ester
Used drive : HL-DT-STDVDRRW GWA-4164B Adapter: 5 ID: 0
Read mode : SecureUtilize accurate stream : YesDefeat audio cache : YesMake use of C2 pointers : No
Read offset correction : 102Overread into Lead-In and Lead-Out : NoFill up missing offset samples with silence : YesDelete leading and trailing silent blocks : NoNull samples used in CRC calculations : YesUsed interface : Native Win32 interface for Win NT & 2000
Used output format : User Defined EncoderSelected bitrate : 896 kBit/sQuality : HighAdd ID3 tag : NoCommand line compressor : C:\Program Files\Exact Audio Copy\FLAC\FLAC.EXEAdditional command line options : -V -8 %source%
TOC of the extracted CD
Track | Start | Length | Start sector | End sector --------------------------------------------------------- 1 | 0:00.00 | 1:37.00 | 0 | 7274 2 | 1:37.00 | 1:08.07 | 7275 | 12381 3 | 2:45.07 | 3:01.71 | 12382 | 26027 4 | 5:47.03 | 1:22.46 | 26028 | 32223 5 | 7:09.49 | 1:33.26 | 32224 | 39224 6 | 8:43.00 | 1:18.51 | 39225 | 45125 7 | 10:01.51 | 1:00.33 | 45126 | 49658 8 | 11:02.09 | 2:47.60 | 49659 | 62243 9 | 13:49.69 | 2:02.21 | 62244 | 71414 10 | 15:52.15 | 1:27.05 | 71415 | 77944 11 | 17:19.20 | 1:06.55 | 77945 | 82949 12 | 18:26.00 | 1:18.49 | 82950 | 88848 13 | 19:44.49 | 1:18.04 | 88849 | 94702 14 | 21:02.53 | 0:18.66 | 94703 | 96118 15 | 21:21.44 | 0:41.57 | 96119 | 99250 16 | 22:03.26 | 2:02.24 | 99251 | 108424 17 | 24:05.50 | 0:15.31 | 108425 | 109580 18 | 24:21.06 | 1:07.07 | 109581 | 114612 19 | 25:28.13 | 1:30.14 | 114613 | 121376 20 | 26:58.27 | 2:17.37 | 121377 | 131688 21 | 29:15.64 | 3:01.68 | 131689 | 145331 22 | 32:17.57 | 2:10.18 | 145332 | 155099 23 | 34:28.00 | 0:36.60 | 155100 | 157859 24 | 35:04.60 | 0:47.64 | 157860 | 161448 25 | 35:52.49 | 0:52.20 | 161449 | 165368 26 | 36:44.69 | 1:50.65 | 165369 | 173683 27 | 38:35.59 | 1:16.59 | 173684 | 179442 28 | 39:52.43 | 0:17.43 | 179443 | 180760 29 | 40:10.11 | 0:57.64 | 180761 | 185099 30 | 41:08.00 | 1:51.38 | 185100 | 193462 31 | 42:59.38 | 0:53.06 | 193463 | 197443 32 | 43:52.44 | 2:21.51 | 197444 | 208069 33 | 46:14.20 | 0:37.34 | 208070 | 210878 34 | 46:51.54 | 0:36.44 | 210879 | 213622 35 | 47:28.23 | 1:36.73 | 213623 | 220895 36 | 49:05.21 | 0:29.18 | 220896 | 223088 37 | 49:34.39 | 2:12.35 | 223089 | 233023 38 | 51:46.74 | 1:42.05 | 233024 | 240678 39 | 53:29.04 | 1:14.55 | 240679 | 246283 40 | 54:43.59 | 1:02.12 | 246284 | 250945 41 | 55:45.71 | 0:40.23 | 250946 | 253968 42 | 56:26.19 | 0:56.70 | 253969 | 258238 43 | 57:23.14 | 1:00.00 | 258239 | 262738 44 | 58:23.14 | 0:33.63 | 262739 | 265276 45 | 58:57.02 | 0:43.38 | 265277 | 268539 46 | 59:40.40 | 1:02.03 | 268540 | 273192 47 | 60:42.43 | 1:43.32 | 273193 | 280949 48 | 62:26.00 | 3:52.15 | 280950 | 298364 49 | 66:18.15 | 0:49.73 | 298365 | 302112
Range status and errors
Selected range
Filename D:\temp\Music\Stradella - Ester\Stradella - Ester.wav
Peak level 97.2 % Extraction speed 2.7 X Range quality 99.9 % Test CRC 948105AB Copy CRC 948105AB Copy OK
No errors occurred
AccurateRip summary
Track 1 accurately ripped (confidence 2) [89BF7DA7] (AR v2)Track 2 accurately ripped (confidence 2) [8C13F3A6] (AR v2)Track 3 accurately ripped (confidence 2) [83856C17] (AR v2)Track 4 accurately ripped (confidence 2) [FEC545D2] (AR v2)Track 5 accurately ripped (confidence 2) [487D1BED] (AR v2)Track 6 accurately ripped (confidence 2) [FEA21D5D] (AR v2)Track 7 accurately ripped (confidence 2) [3F641628] (AR v2)Track 8 accurately ripped (confidence 2) [A1D3F8E4] (AR v2)Track 9 accurately ripped (confidence 2) [AC55272A] (AR v2)Track 10 accurately ripped (confidence 2) [3B264B7C] (AR v2)Track 11 accurately ripped (confidence 2) [7CFFA098] (AR v2)Track 12 accurately ripped (confidence 2) [63EEDA8D] (AR v2)Track 13 accurately ripped (confidence 2) [37077587] (AR v2)Track 14 accurately ripped (confidence 2) [0B1B74E9] (AR v2)Track 15 accurately ripped (confidence 2) [F5261065] (AR v2)Track 16 accurately ripped (confidence 2) [36D3DF8E] (AR v2)Track 17 accurately ripped (confidence 2) [E20B9216] (AR v2)Track 18 accurately ripped (confidence 2) [F58F976E] (AR v2)Track 19 accurately ripped (confidence 2) [A7F07B02] (AR v2)Track 20 accurately ripped (confidence 2) [A28927EC] (AR v2)Track 21 accurately ripped (confidence 2) [5108FA36] (AR v2)Track 22 accurately ripped (confidence 2) [16498547] (AR v2)Track 23 accurately ripped (confidence 2) [6A18A338] (AR v2)Track 24 accurately ripped (confidence 2) [FC260D07] (AR v2)Track 25 accurately ripped (confidence 2) [EE1761E4] (AR v2)Track 26 accurately ripped (confidence 2) [F8454B21] (AR v2)Track 27 accurately ripped (confidence 2) [63A7A6DC] (AR v2)Track 28 accurately ripped (confidence 2) [502EB330] (AR v2)Track 29 accurately ripped (confidence 2) [62FA810B] (AR v2)Track 30 accurately ripped (confidence 2) [4EEEAD96] (AR v2)Track 31 accurately ripped (confidence 2) [7C897ECE] (AR v2)Track 32 accurately ripped (confidence 2) [93B9B659] (AR v2)Track 33 accurately ripped (confidence 2) [E7DFF17F] (AR v2)Track 34 accurately ripped (confidence 2) [DCD2A4D0] (AR v2)Track 35 accurately ripped (confidence 2) [18532ED6] (AR v2)Track 36 accurately ripped (confidence 2) [644A54B0] (AR v2)Track 37 accurately ripped (confidence 2) [22111BEE] (AR v2)Track 38 accurately ripped (confidence 2) [AFEB6705] (AR v2)Track 39 accurately ripped (confidence 2) [2F156E4E] (AR v2)Track 40 accurately ripped (confidence 2) [42C8BCD5] (AR v2)Track 41 accurately ripped (confidence 2) [D4B6EA71] (AR v2)Track 42 accurately ripped (confidence 2) [65484FA4] (AR v2)Track 43 accurately ripped (confidence 2) [0EEAE689] (AR v2)Track 44 accurately ripped (confidence 2) [8ED2FC45] (AR v2)Track 45 accurately ripped (confidence 2) [F6A497AA] (AR v2)Track 46 accurately ripped (confidence 2) [027C026C] (AR v2)Track 47 accurately ripped (confidence 2) [4978D7C3] (AR v2)Track 48 accurately ripped (confidence 2) [A2EF8A20] (AR v2)Track 49 accurately ripped (confidence 2) [3C8D2F1F] (AR v2)
All tracks accurately ripped
End of status report
==== Log checksum 52ECBF0C55BF094FCE2F69E3C6EDC8CE2392D758D151EB8DF04EAAF41F5F526C ====
[teatrix.ru].t7953.torrent 
Торрент: Зарегистрирован [ 2015-10-14 02:42 ] · AA603BDD87AE8E56A7E89999E20706F8236D1D1E

Скачать .torrent

Скачать

28 KB

Статус: проверено
Скачан: 0 раз
Размер: 348 MB
terms.php



Быстрый ответ

Имя:

      
Для отправки сообщений необходимо включить JavaScript
Показать сообщения:    

Текущее время: 09-Дек 08:52

Часовой пояс: UTC + 3


Вы можете начинать темы
Вы можете отвечать на сообщения
Вы не можете редактировать свои сообщения
Вы не можете удалять свои сообщения
Вы не можете голосовать в опросах
Вы не можете прикреплять файлы к сообщениям
Вы можете скачивать файлы