(Classical, sacred) Franz Schubert - Masses in C and G major; Deutsche Messe - Immortal Bach Ensemble, Leipziger Kammerorchester, Morten Schuldt-Jensen - 2009, FLAC (image+.cue) lossless


Статистика раздачи [Обновить пиров]
Размер:  243 MB   |    Зарегистрирован:  1 год 1 месяц   |    Скачан:  0 раз

Полного источника не было: Никогда

 
   
 
 
 

[Цитировать]

Franz Schubert - Masses in C and G major; Deutsche Messe - Immortal Bach Ensemble, Leipziger Kammerorchester, Morten Schuldt-Jensen
Жанр: Classical, sacred
Год издания диска: 2009
Издатель (лейбл): Naxos
Номер по каталогу: 8.570764
Дата записи: 2007
Аудиокодек: FLAC
Тип рипа: image+.cue
Битрейт аудио: lossless
Продолжительность: 61:38
Источник: собственный рип
Наличие сканов в содержимом раздачи: да
Треклист:
Franz Schubert (1797-1828)
[1]-[10] Mass No. 4 in C major, D. 452, Op. 48
[11]-[19] Mass No. 2 in G major, D. 167
[20]-[28] Deutsche Messe, D. 872
Исполнители:
Immortal Bach Ensemble
Leipziger Kammerorchester
Morten Schuldt-Jensen

Лог создания рипа

Exact Audio Copy V1.0 beta 3 from 29. August 2011
EAC extraction logfile from 7. May 2014, 21:57
Immortal Bach Ensemble, Leipziger Kammerorchester, Morten Schuldt-Jensen / Schubert - Masses in C and G major
Used drive : HL-DT-STDVDRAM GSA-4083N Adapter: 1 ID: 0
Read mode : SecureUtilize accurate stream : YesDefeat audio cache : YesMake use of C2 pointers : No
Read offset correction : 667Overread into Lead-In and Lead-Out : NoFill up missing offset samples with silence : YesDelete leading and trailing silent blocks : NoNull samples used in CRC calculations : YesUsed interface : Native Win32 interface for Win NT & 2000
Used output format : User Defined EncoderSelected bitrate : 896 kBit/sQuality : HighAdd ID3 tag : NoCommand line compressor : C:\Program Files\Exact Audio Copy\Flac\flac.exeAdditional command line options : -V -8 %source%
TOC of the extracted CD
Track | Start | Length | Start sector | End sector --------------------------------------------------------- 1 | 0:00.00 | 2:16.55 | 0 | 10254 2 | 2:16.55 | 3:48.45 | 10255 | 27399 3 | 6:05.25 | 1:22.63 | 27400 | 33612 4 | 7:28.13 | 1:23.61 | 33613 | 39898 5 | 8:51.74 | 1:52.07 | 39899 | 48305 6 | 10:44.06 | 0:37.11 | 48306 | 51091 7 | 11:21.17 | 0:46.09 | 51092 | 54550 8 | 12:07.26 | 2:59.43 | 54551 | 68018 9 | 15:06.69 | 1:44.03 | 68019 | 75821 10 | 16:50.72 | 2:03.21 | 75822 | 85067 11 | 18:54.18 | 3:01.29 | 85068 | 98671 12 | 21:55.47 | 1:12.24 | 98672 | 104095 13 | 23:07.71 | 1:35.29 | 104096 | 111249 14 | 24:43.25 | 3:17.73 | 111250 | 126097 15 | 28:01.23 | 0:40.10 | 126098 | 129107 16 | 28:41.33 | 0:36.44 | 129108 | 131851 17 | 29:18.02 | 3:21.60 | 131852 | 146986 18 | 32:39.62 | 0:40.38 | 146987 | 150024 19 | 33:20.25 | 4:21.09 | 150025 | 169608 20 | 37:41.34 | 3:26.18 | 169609 | 185076 21 | 41:07.52 | 2:25.11 | 185077 | 195962 22 | 43:32.63 | 3:48.54 | 195963 | 213116 23 | 47:21.42 | 2:10.13 | 213117 | 222879 24 | 49:31.55 | 2:44.02 | 222880 | 235181 25 | 52:15.57 | 2:24.42 | 235182 | 246023 26 | 54:40.24 | 3:05.46 | 246024 | 259944 27 | 57:45.70 | 1:47.40 | 259945 | 268009 28 | 59:33.35 | 2:02.40 | 268010 | 277199
Range status and errors
Selected range
Filename J:\New Music\Naxos_8.570764 - Schubert - Masses in C and G major\Schubert - Masses in C and G major.wav
Peak level 91.2 % Extraction speed 2.7 X Range quality 99.9 % Test CRC 21B40A62 Copy CRC 21B40A62 Copy OK
No errors occurred
AccurateRip summary
Track 1 accurately ripped (confidence 3) [0C3E4C40] (AR v2)Track 2 accurately ripped (confidence 3) [12641773] (AR v2)Track 3 accurately ripped (confidence 3) [65B2AF7A] (AR v2)Track 4 accurately ripped (confidence 3) [0945319E] (AR v2)Track 5 accurately ripped (confidence 3) [0DE0AB0A] (AR v2)Track 6 accurately ripped (confidence 3) [EEB9A2ED] (AR v2)Track 7 accurately ripped (confidence 3) [66B8B495] (AR v2)Track 8 accurately ripped (confidence 3) [29F1E151] (AR v2)Track 9 accurately ripped (confidence 3) [02963185] (AR v2)Track 10 accurately ripped (confidence 3) [E505B2F9] (AR v2)Track 11 accurately ripped (confidence 3) [71BA4EB1] (AR v2)Track 12 accurately ripped (confidence 3) [A735D560] (AR v2)Track 13 accurately ripped (confidence 3) [9F6F13D9] (AR v2)Track 14 accurately ripped (confidence 3) [7481AB52] (AR v2)Track 15 accurately ripped (confidence 3) [6038B168] (AR v2)Track 16 accurately ripped (confidence 3) [0C3DFE32] (AR v2)Track 17 accurately ripped (confidence 3) [B9145682] (AR v2)Track 18 accurately ripped (confidence 3) [9BC59D97] (AR v2)Track 19 accurately ripped (confidence 3) [A6E91BD5] (AR v2)Track 20 accurately ripped (confidence 3) [668F8D82] (AR v2)Track 21 accurately ripped (confidence 3) [56C59A2B] (AR v2)Track 22 accurately ripped (confidence 3) [0FC233C0] (AR v2)Track 23 accurately ripped (confidence 3) [DD1E0542] (AR v2)Track 24 accurately ripped (confidence 3) [70775DED] (AR v2)Track 25 accurately ripped (confidence 3) [61EC5D04] (AR v2)Track 26 accurately ripped (confidence 3) [188FB103] (AR v2)Track 27 accurately ripped (confidence 3) [B999577B] (AR v2)Track 28 accurately ripped (confidence 3) [876B4A0C] (AR v2)
All tracks accurately ripped
End of status report
==== Log checksum B733530E1D397781EAD3DB3A0737B67A4FA083687A4CFAE6EA3979936938FDA4 ====
[teatrix.ru].t7954.torrent 
Торрент: Зарегистрирован [ 2015-10-14 02:42 ] · 897078587071CDCCE198960E387A5CEA1D62EF25

Скачать .torrent

Скачать

39 KB

Статус: проверено
Скачан: 0 раз
Размер: 243 MB
terms.php



Быстрый ответ

Имя:

      
Для отправки сообщений необходимо включить JavaScript
Показать сообщения:    

Текущее время: 09-Дек 10:50

Часовой пояс: UTC + 3


Вы можете начинать темы
Вы можете отвечать на сообщения
Вы не можете редактировать свои сообщения
Вы не можете удалять свои сообщения
Вы не можете голосовать в опросах
Вы не можете прикреплять файлы к сообщениям
Вы можете скачивать файлы