(Classical, sacred) Franz Schubert - Mass No.5; Magnificat - Immortal Bach Ensemble, Leipziger Kammerorchester, Morten Schuldt-Jensen - 2011, FLAC (image+.cue) lossless


Статистика раздачи [Обновить пиров]
Размер:  203 MB   |    Зарегистрирован:  1 год 1 месяц   |    Скачан:  0 раз

Полного источника не было: Никогда

 
   
 
 
 

[Цитировать]

Franz Schubert - Mass No.5; Magnificat - Immortal Bach Ensemble, Leipziger Kammerorchester, Morten Schuldt-Jensen
Жанр: Classical, sacred
Год издания диска: 2011
Издатель (лейбл): Naxos
Номер по каталогу: 8.572114
Дата записи: 2009
Аудиокодек: FLAC
Тип рипа: image+.cue
Битрейт аудио: lossless
Продолжительность: 48:51
Источник: собственный рип
Наличие сканов в содержимом раздачи: да
Треклист:
Franz Schubert (1797-1828)
[1]-[14] Mass No.5 in A flat major, D.678
[15]-[17] Magnificat in C major, D.486
Исполнители:
Immortal Bach Ensemble
Leipziger Kammerorchester
Morten Schuldt-Jensen

Лог создания рипа

Exact Audio Copy V1.0 beta 3 from 29. August 2011
EAC extraction logfile from 21. March 2014, 17:41
Immortal Bach Ensemble, Leipziger Kammerorchester, Morten Schuldt-Jensen / Schubert - Mass No.5; Magnificat
Used drive : HL-DT-STDVDRRW GWA-4164B Adapter: 5 ID: 0
Read mode : SecureUtilize accurate stream : YesDefeat audio cache : YesMake use of C2 pointers : No
Read offset correction : 102Overread into Lead-In and Lead-Out : NoFill up missing offset samples with silence : YesDelete leading and trailing silent blocks : NoNull samples used in CRC calculations : YesUsed interface : Native Win32 interface for Win NT & 2000
Used output format : User Defined EncoderSelected bitrate : 896 kBit/sQuality : HighAdd ID3 tag : NoCommand line compressor : C:\Program Files\Exact Audio Copy\FLAC\FLAC.EXEAdditional command line options : -V -8 %source%
TOC of the extracted CD
Track | Start | Length | Start sector | End sector --------------------------------------------------------- 1 | 0:00.00 | 5:48.35 | 0 | 26134 2 | 5:48.35 | 2:18.35 | 26135 | 36519 3 | 8:06.70 | 3:28.04 | 36520 | 52123 4 | 11:34.74 | 2:27.26 | 52124 | 63174 5 | 14:02.25 | 4:03.51 | 63175 | 81450 6 | 18:06.01 | 2:17.40 | 81451 | 91765 7 | 20:23.41 | 3:48.52 | 91766 | 108917 8 | 24:12.18 | 1:54.36 | 108918 | 117503 9 | 26:06.54 | 1:43.00 | 117504 | 125228 10 | 27:49.54 | 2:08.53 | 125229 | 134881 11 | 29:58.32 | 0:38.68 | 134882 | 137799 12 | 30:37.25 | 3:50.14 | 137800 | 155063 13 | 34:27.39 | 3:13.14 | 155064 | 169552 14 | 37:40.53 | 2:28.03 | 169553 | 180655 15 | 40:08.56 | 1:56.12 | 180656 | 189367 16 | 42:04.68 | 3:01.42 | 189368 | 202984 17 | 45:06.35 | 3:42.40 | 202985 | 219674
Range status and errors
Selected range
Filename D:\temp\Music\Naxos_8.572114 - Schubert - Mass No.5; Magnificat\Schubert - Mass No.5; Magnificat.wav
Peak level 95.2 % Extraction speed 2.5 X Range quality 100.0 % Test CRC E756281F Copy CRC E756281F Copy OK
No errors occurred
AccurateRip summary
Track 1 accurately ripped (confidence 1) [70197860] (AR v2)Track 2 accurately ripped (confidence 1) [4707CE1F] (AR v2)Track 3 accurately ripped (confidence 1) [7F901327] (AR v2)Track 4 accurately ripped (confidence 1) [F83C026A] (AR v2)Track 5 accurately ripped (confidence 1) [8EAC71C5] (AR v2)Track 6 accurately ripped (confidence 1) [5E93A1CE] (AR v2)Track 7 accurately ripped (confidence 1) [D0CB846C] (AR v2)Track 8 accurately ripped (confidence 1) [8A3BA07F] (AR v2)Track 9 accurately ripped (confidence 1) [DD35C9FF] (AR v2)Track 10 accurately ripped (confidence 1) [B34E5B8B] (AR v2)Track 11 accurately ripped (confidence 1) [F971747C] (AR v2)Track 12 accurately ripped (confidence 1) [EEA751A7] (AR v2)Track 13 accurately ripped (confidence 1) [0CED6DFC] (AR v2)Track 14 accurately ripped (confidence 1) [8059AA10] (AR v2)Track 15 accurately ripped (confidence 1) [672B23AF] (AR v2)Track 16 accurately ripped (confidence 1) [63C5043A] (AR v2)Track 17 accurately ripped (confidence 1) [3F2C4D9F] (AR v2)
All tracks accurately ripped
End of status report
==== Log checksum DBFB6398E8D2F0E5AFBDD5BCAA97076C4BBB976E4AF4BBBD20A9F047539AC0A4 ====
[teatrix.ru].t7955.torrent 
Торрент: Зарегистрирован [ 2015-10-14 02:42 ] · 428A27809EE865531A1F8675CA5C2B01D850F390

Скачать .torrent

Скачать

33 KB

Статус: проверено
Скачан: 0 раз
Размер: 203 MB
terms.php



Быстрый ответ

Имя:

      
Для отправки сообщений необходимо включить JavaScript
Показать сообщения:    

Текущее время: 07-Дек 13:39

Часовой пояс: UTC + 3


Вы можете начинать темы
Вы можете отвечать на сообщения
Вы не можете редактировать свои сообщения
Вы не можете удалять свои сообщения
Вы не можете голосовать в опросах
Вы не можете прикреплять файлы к сообщениям
Вы можете скачивать файлы