(Classical, sacred) Franz Schubert - Masses Nos.1 & 3 - Immortal Bach Ensemble, Leipziger Kammerorchester, Morten Schuldt-Jensen - 2010, FLAC (image+.cue) lossless


Статистика раздачи [Обновить пиров]
Размер:  232 MB   |    Зарегистрирован:  1 год 1 месяц   |    Скачан:  0 раз

Полного источника не было: Никогда

 
   
 
 
 

[Цитировать]

Franz Schubert - Masses Nos.1 & 3 - Immortal Bach Ensemble, Leipziger Kammerorchester, Morten Schuldt-Jensen
Жанр: Classical, sacred
Год издания диска: 2010
Издатель (лейбл): Naxos
Номер по каталогу: 8.572279
Дата записи: 2009
Аудиокодек: FLAC
Тип рипа: image+.cue
Битрейт аудио: lossless
Продолжительность: 57:37
Источник: собственный рип
Наличие сканов в содержимом раздачи: да
Треклист:
Franz Schubert (1797-1828)
[1]-[10] Mass No.1 in F major, D.105
[11]-[21] Mass No.3 in B flat major, D.324, Op.posth.141
Исполнители:
Immortal Bach Ensemble
Leipziger Kammerorchester
Morten Schuldt-Jensen

Лог создания рипа

Exact Audio Copy V1.0 beta 3 from 29. August 2011
EAC extraction logfile from 21. March 2014, 16:53
Immortal Bach Ensemble, Leipziger Kammerorchester, Morten Schuldt-Jensen / Schubert - Masses Nos. 1 & 3
Used drive : HL-DT-STDVDRRW GWA-4164B Adapter: 5 ID: 0
Read mode : SecureUtilize accurate stream : YesDefeat audio cache : YesMake use of C2 pointers : No
Read offset correction : 102Overread into Lead-In and Lead-Out : NoFill up missing offset samples with silence : YesDelete leading and trailing silent blocks : NoNull samples used in CRC calculations : YesUsed interface : Native Win32 interface for Win NT & 2000
Used output format : User Defined EncoderSelected bitrate : 896 kBit/sQuality : HighAdd ID3 tag : NoCommand line compressor : C:\Program Files\Exact Audio Copy\FLAC\FLAC.EXEAdditional command line options : -V -8 %source%
TOC of the extracted CD
Track | Start | Length | Start sector | End sector --------------------------------------------------------- 1 | 0:00.00 | 4:31.61 | 0 | 20385 2 | 4:31.61 | 1:44.61 | 20386 | 28246 3 | 6:16.47 | 6:01.04 | 28247 | 55325 4 | 12:17.51 | 3:31.27 | 55326 | 71177 5 | 15:49.03 | 2:57.44 | 71178 | 84496 6 | 18:46.47 | 2:45.16 | 84497 | 96887 7 | 21:31.63 | 2:02.38 | 96888 | 106075 8 | 23:34.26 | 3:41.31 | 106076 | 122681 9 | 27:15.57 | 2:08.13 | 122682 | 132294 10 | 29:23.70 | 4:04.52 | 132295 | 150646 11 | 33:28.47 | 2:59.23 | 150647 | 164094 12 | 36:27.70 | 1:51.00 | 164095 | 172419 13 | 38:18.70 | 2:23.72 | 172420 | 183216 14 | 40:42.67 | 2:28.27 | 183217 | 194343 15 | 43:11.19 | 1:14.30 | 194344 | 199923 16 | 44:25.49 | 1:47.52 | 199924 | 208000 17 | 46:13.26 | 1:38.74 | 208001 | 215424 18 | 47:52.25 | 1:22.60 | 215425 | 221634 19 | 49:15.10 | 3:49.31 | 221635 | 238840 20 | 53:04.41 | 1:38.22 | 238841 | 246212 21 | 54:42.63 | 2:52.12 | 246213 | 259124
Range status and errors
Selected range
Filename D:\temp\Music\Naxos_8.572279 - Schubert - Masses Nos. 1 & 3\Schubert - Masses Nos. 1 & 3.wav
Peak level 98.3 % Extraction speed 3.5 X Range quality 100.0 % Test CRC 88B50560 Copy CRC 88B50560 Copy OK
No errors occurred
AccurateRip summary
Track 1 accurately ripped (confidence 1) [E5369E02] (AR v1)Track 2 accurately ripped (confidence 1) [2F047236] (AR v1)Track 3 accurately ripped (confidence 1) [BCDDDA06] (AR v1)Track 4 accurately ripped (confidence 1) [1181D67B] (AR v1)Track 5 accurately ripped (confidence 1) [F8A7480A] (AR v1)Track 6 accurately ripped (confidence 1) [ED25C229] (AR v1)Track 7 accurately ripped (confidence 1) [523ED99E] (AR v1)Track 8 accurately ripped (confidence 1) [71642ED7] (AR v1)Track 9 accurately ripped (confidence 1) [B308E166] (AR v1)Track 10 accurately ripped (confidence 1) [C6C2D5DD] (AR v1)Track 11 accurately ripped (confidence 1) [FFE59E57] (AR v1)Track 12 accurately ripped (confidence 1) [B58B8171] (AR v1)Track 13 accurately ripped (confidence 1) [ED82410B] (AR v1)Track 14 accurately ripped (confidence 1) [E6D990AB] (AR v1)Track 15 accurately ripped (confidence 1) [BA40F0E3] (AR v1)Track 16 accurately ripped (confidence 1) [2EBFA17F] (AR v1)Track 17 accurately ripped (confidence 1) [58286CA5] (AR v1)Track 18 accurately ripped (confidence 1) [73C46893] (AR v1)Track 19 accurately ripped (confidence 1) [743973C8] (AR v1)Track 20 accurately ripped (confidence 1) [5A6BE404] (AR v1)Track 21 accurately ripped (confidence 1) [A958AED8] (AR v1)
All tracks accurately ripped
End of status report
==== Log checksum C71B697F96ECE1CE59BA8C74CAC634B820918FFD162307965026E3DD66229B2F ====
[teatrix.ru].t7956.torrent 
Торрент: Зарегистрирован [ 2015-10-14 02:42 ] · E2D6E3248A49A3036D1D1BA3A6B0934353BE520C

Скачать .torrent

Скачать

38 KB

Статус: проверено
Скачан: 0 раз
Размер: 232 MB
terms.php



Быстрый ответ

Имя:

      
Для отправки сообщений необходимо включить JavaScript
Показать сообщения:    

Текущее время: 06-Дек 20:59

Часовой пояс: UTC + 3


Вы можете начинать темы
Вы можете отвечать на сообщения
Вы не можете редактировать свои сообщения
Вы не можете удалять свои сообщения
Вы не можете голосовать в опросах
Вы не можете прикреплять файлы к сообщениям
Вы можете скачивать файлы