(Classical) Джоаккино Россини / Gioachino Rossini - Stabat Mater (Frittoli, Ganassi, Sabbatini, Pertusi, NRC, RCO, Chailly) - 2003, FLAC (tracks+.cue) lossless


Статистика раздачи [Обновить пиров]
Размер:  318 MB   |    Зарегистрирован:  1 год 1 месяц   |    Скачан:  0 раз

Полного источника не было: Никогда

 
   
 
 
 

[Цитировать]

Gioachino Rossini - Stabat Mater (Frittoli, Ganassi, Sabbatini, Pertusi, NRC, RCO, Chailly)
Жанр: Classical
Год издания диска: 2003
Издатель (лейбл): Decca
Номер по каталогу: 460 781-2
Аудиокодек: FLAC
Тип рипа: tracks+.cue
Битрейт аудио: lossless
Продолжительность: 55’39"
Источник: скачано из сети
Наличие сканов в содержимом раздачи: да
Треклист:
01. I. Stabat Mater - 8.40
02. II. Cuius animam - 5.38
03. III. Quis est homo - 6.16
04. IV. Pro peccatis - 4.36
05. V. Eia, Mater - 4.24
06. VI. Sancta Mater - 7.08
07. VII. Fac ut portem - 4.21
08. VIII. Inflammatus et accensus - 4.39
09. IX. Quando corpus - 4.22
10. X. Amen, in sempiterna - 5.36
Исполнители:
Barbara Frittoli, soprano
Sonia Ganassi, mezzo-soprano
Giuseppe Sabbatini, tenor
Michele Pertusi, bass
Netherlands Radio Choir (chief conductor: Martin Wright)
Royal Concertgebouw Orchestra
Riccardo Chailly

LOG EAC CD:

Exact Audio Copy V1.0 beta 3 from 29. August 2011
EAC extraction logfile from 25. January 2012, 17:34
Rossini / Stabat Mater - Netherlands Radio Choir, Royal Concertgebouw Orchestra, Chailly
Used drive : PLEXTOR CD-R PREMIUM2 Adapter: 3 ID: 1
Read mode : Secure
Utilize accurate stream : Yes
Defeat audio cache : Yes
Make use of C2 pointers : No
Read offset correction : 30
Overread into Lead-In and Lead-Out : Yes
Fill up missing offset samples with silence : Yes
Delete leading and trailing silent blocks : No
Null samples used in CRC calculations : Yes
Used interface : Installed external ASPI interface
Gap handling : Appended to previous track
Used output format : User Defined Encoder
Selected bitrate : 1024 kBit/s
Quality : High
Add ID3 tag : No
Command line compressor : C:\Program Files\Exact Audio Copy\Flac\flac.exe
Additional command line options : -6 -V -T "ARTIST=%artist%" -T "TITLE=%title%" -T "ALBUM=%albumtitle%" -T "DATE=%year%" -T "PERFORMER=%albuminterpret%" -T "TRACKNUMBER=%tracknr%" -T "GENRE=%genre%" -T "COMMENT=EAC Secure, Test&Copy, AccurateRip, FLAC -6" -T "COMPOSER=%composer%" -T "DISCNUMBER=%cdnumber%" -T "TOTALDISCS=%totalcds%" -T "TOTALTRACKS=%numtracks%" %source% -o %dest%
TOC of the extracted CD
Track | Start | Length | Start sector | End sector
---------------------------------------------------------
1 | 0:00.00 | 8:39.54 | 0 | 38978
2 | 8:39.54 | 5:37.40 | 38979 | 64293
3 | 14:17.19 | 6:15.42 | 64294 | 92460
4 | 20:32.61 | 4:35.19 | 92461 | 113104
5 | 25:08.05 | 4:24.00 | 113105 | 132904
6 | 29:32.05 | 7:07.63 | 132905 | 164992
7 | 36:39.68 | 4:20.62 | 164993 | 184554
8 | 41:00.55 | 4:39.04 | 184555 | 205483
9 | 45:39.59 | 4:21.49 | 205484 | 225107
10 | 50:01.33 | 5:35.37 | 225108 | 250269
Track 1
Filename D:\Classical\Rossini - Stabat Mater (2003) [FLAC] {Frittoli, Ganassi, Sabbatini, Pertusi, NRC, RCO, Chailly} (Decca 460 781-2)\01 - I. Stabat Mater.wav
Pre-gap length 0:00:02.00
Peak level 95.3 %
Extraction speed 4.3 X
Track quality 100.0 %
Test CRC 4711E027
Copy CRC 4711E027
Accurately ripped (confidence 4) [94A92677] (AR v1)
Copy OK
Track 2
Filename D:\Classical\Rossini - Stabat Mater (2003) [FLAC] {Frittoli, Ganassi, Sabbatini, Pertusi, NRC, RCO, Chailly} (Decca 460 781-2)\02 - II. Cuius animam.wav
Peak level 64.7 %
Extraction speed 4.9 X
Track quality 100.0 %
Test CRC 86B02C29
Copy CRC 86B02C29
Accurately ripped (confidence 4) [C898A6B8] (AR v1)
Copy OK
Track 3
Filename D:\Classical\Rossini - Stabat Mater (2003) [FLAC] {Frittoli, Ganassi, Sabbatini, Pertusi, NRC, RCO, Chailly} (Decca 460 781-2)\03 - III. Quis est homo.wav
Peak level 61.2 %
Extraction speed 5.6 X
Track quality 100.0 %
Test CRC 2D24C5E6
Copy CRC 2D24C5E6
Accurately ripped (confidence 4) [FC8D7ED5] (AR v1)
Copy OK
Track 4
Filename D:\Classical\Rossini - Stabat Mater (2003) [FLAC] {Frittoli, Ganassi, Sabbatini, Pertusi, NRC, RCO, Chailly} (Decca 460 781-2)\04 - IV. Pro peccatis.wav
Peak level 76.3 %
Extraction speed 5.5 X
Track quality 100.0 %
Test CRC F2121BAA
Copy CRC F2121BAA
Accurately ripped (confidence 4) [C3501361] (AR v1)
Copy OK
Track 5
Filename D:\Classical\Rossini - Stabat Mater (2003) [FLAC] {Frittoli, Ganassi, Sabbatini, Pertusi, NRC, RCO, Chailly} (Decca 460 781-2)\05 - V. Eia, Mater.wav
Peak level 71.3 %
Extraction speed 5.9 X
Track quality 100.0 %
Test CRC 0EFD1D06
Copy CRC 0EFD1D06
Accurately ripped (confidence 4) [CDC86ED0] (AR v1)
Copy OK
Track 6
Filename D:\Classical\Rossini - Stabat Mater (2003) [FLAC] {Frittoli, Ganassi, Sabbatini, Pertusi, NRC, RCO, Chailly} (Decca 460 781-2)\06 - VI. Sancta Mater.wav
Peak level 70.6 %
Extraction speed 6.5 X
Track quality 100.0 %
Test CRC 289C655F
Copy CRC 289C655F
Accurately ripped (confidence 4) [D66DE95E] (AR v1)
Copy OK
Track 7
Filename D:\Classical\Rossini - Stabat Mater (2003) [FLAC] {Frittoli, Ganassi, Sabbatini, Pertusi, NRC, RCO, Chailly} (Decca 460 781-2)\07 - VII. Fac ut portem.wav
Peak level 58.5 %
Extraction speed 7.0 X
Track quality 100.0 %
Test CRC 5CB48CD9
Copy CRC 5CB48CD9
Accurately ripped (confidence 4) [179B9210] (AR v1)
Copy OK
Track 8
Filename D:\Classical\Rossini - Stabat Mater (2003) [FLAC] {Frittoli, Ganassi, Sabbatini, Pertusi, NRC, RCO, Chailly} (Decca 460 781-2)\08 - VIII. Inflammatus et accensus.wav
Peak level 94.5 %
Extraction speed 6.8 X
Track quality 100.0 %
Test CRC 15C42FBD
Copy CRC 15C42FBD
Accurately ripped (confidence 4) [6138CED0] (AR v1)
Copy OK
Track 9
Filename D:\Classical\Rossini - Stabat Mater (2003) [FLAC] {Frittoli, Ganassi, Sabbatini, Pertusi, NRC, RCO, Chailly} (Decca 460 781-2)\09 - IX. Quando corpus.wav
Peak level 51.9 %
Extraction speed 6.0 X
Track quality 100.0 %
Test CRC 93CCBE4F
Copy CRC 93CCBE4F
Accurately ripped (confidence 4) [D5FD590E] (AR v1)
Copy OK
Track 10
Filename D:\Classical\Rossini - Stabat Mater (2003) [FLAC] {Frittoli, Ganassi, Sabbatini, Pertusi, NRC, RCO, Chailly} (Decca 460 781-2)\10 - X. Amen, in sempiterna.wav
Peak level 99.8 %
Extraction speed 7.4 X
Track quality 100.0 %
Test CRC 2247DE7C
Copy CRC 2247DE7C
Accurately ripped (confidence 4) [3CCA5315] (AR v1)
Copy OK
All tracks accurately ripped
No errors occurred
End of status report
==== Log checksum 2B0EE212BF79428740E40CAA299D2766EB2E209DB3773AA5B073308922A8DF9D ====

LOG (.CUE):

REM GENRE Classical
REM DATE 2003
REM DISCID 6B0D080A
REM COMMENT "ExactAudioCopy v1.0b3"
PERFORMER "Rossini"
TITLE "Stabat Mater - Netherlands Radio Choir, Royal Concertgebouw Orchestra, Chailly"
FILE "01 - I. Stabat Mater.wav" WAVE
TRACK 01 AUDIO
TITLE "I. Stabat Mater"
PERFORMER "Rossini"
ISRC GBBBB9800501
INDEX 01 00:00:00
FILE "02 - II. Cuius animam.wav" WAVE
TRACK 02 AUDIO
TITLE "II. Cuius animam"
PERFORMER "Rossini"
ISRC GBBBB9800502
INDEX 01 00:00:00
FILE "03 - III. Quis est homo.wav" WAVE
TRACK 03 AUDIO
TITLE "III. Quis est homo"
PERFORMER "Rossini"
ISRC GBBBB9800503
INDEX 01 00:00:00
FILE "04 - IV. Pro peccatis.wav" WAVE
TRACK 04 AUDIO
TITLE "IV. Pro peccatis"
PERFORMER "Rossini"
ISRC GBBBB9800504
INDEX 01 00:00:00
FILE "05 - V. Eia, Mater.wav" WAVE
TRACK 05 AUDIO
TITLE "V. Eia, Mater"
PERFORMER "Rossini"
ISRC GBBBB9800505
INDEX 01 00:00:00
FILE "06 - VI. Sancta Mater.wav" WAVE
TRACK 06 AUDIO
TITLE "VI. Sancta Mater"
PERFORMER "Rossini"
ISRC GBBBB9800506
INDEX 01 00:00:00
FILE "07 - VII. Fac ut portem.wav" WAVE
TRACK 07 AUDIO
TITLE "VII. Fac ut portem"
PERFORMER "Rossini"
ISRC GBBBB9800507
INDEX 01 00:00:00
FILE "08 - VIII. Inflammatus et accensus.wav" WAVE
TRACK 08 AUDIO
TITLE "VIII. Inflammatus et accensus"
PERFORMER "Rossini"
ISRC GBBBB9800508
INDEX 01 00:00:00
FILE "09 - IX. Quando corpus.wav" WAVE
TRACK 09 AUDIO
TITLE "IX. Quando corpus"
PERFORMER "Rossini"
ISRC GBBBB9800509
INDEX 01 00:00:00
FILE "10 - X. Amen, in sempiterna.wav" WAVE
TRACK 10 AUDIO
TITLE "X. Amen, in sempiterna"
PERFORMER "Rossini"
ISRC GBBBB9800510
INDEX 01 00:00:00
[teatrix.ru].t7957.torrent 
Торрент: Зарегистрирован [ 2015-10-14 02:42 ] · 0C05E2E9D7471A17DED7BC39368D504729076731

Скачать .torrent

Скачать

15 KB

Статус: проверено
Скачан: 0 раз
Размер: 318 MB
terms.php



Быстрый ответ

Имя:

      
Для отправки сообщений необходимо включить JavaScript
Показать сообщения:    

Текущее время: 07-Дек 17:23

Часовой пояс: UTC + 3


Вы можете начинать темы
Вы можете отвечать на сообщения
Вы не можете редактировать свои сообщения
Вы не можете удалять свои сообщения
Вы не можете голосовать в опросах
Вы не можете прикреплять файлы к сообщениям
Вы можете скачивать файлы