(Classical) Francesco Cavalli - 5 Magnificat and other sacred works - Ensemble La Pifarescha, Coro Claudio Monteverdi, Bruno Gini - 2009, FLAC (image+.cue) lossless


Статистика раздачи [Обновить пиров]
Размер:  315 MB   |    Зарегистрирован:  1 год 1 месяц   |    Скачан:  0 раз

Полного источника не было: Никогда

 
   
 
 
 

[Цитировать]

Francesco Cavalli - 5 Magnificat and other sacred works - Ensemble La Pifarescha, Coro Claudio Monteverdi, Bruno Gini
Жанр: Classical
Страна-производитель диска: Italy
Год издания диска: 2009
Издатель (лейбл): Dynamic
Номер по каталогу: CDS 623
Дата записи: 2008
Аудиокодек: FLAC
Тип рипа: image+.cue
Битрейт аудио: lossless
Продолжительность: 71:48
Источник: собственный рип
Наличие сканов в содержимом раздачи: да
Треклист:
Francesco Cavalli (1602-1676)
[1] MAGNIFICAT a sei voci
(From the collection Messa a 4 Voci, Salmi e Litanie della B. V. by C. Monteverdi, 1650)
[2] MAGNIFICAT a otto voci
(From Musiche Sacre, 1656)
[3] CANZONA a dieci
(From Musiche Sacre, 1656)
[4] MAGNIFICAT a otto voci
(From Vespero della Beata Vergine,1675)
[5] MAGNIFICAT a otto voci
(From Vespero delle Domeniche, 1675)
[6] MAGNIFICAT a otto voci
(From Vespero delli Cinque Laudate, 1675)
[7] LAETATUS SUM a tre voci
(From Musiche Sacre, 1656)
[8] CANZONA a dodici
(From Musiche Sacre, 1656)
[9] DIXIT DOMINUS a otto voci
(From Musiche Sacre, 1656)
Исполнители:
Ensemble La Pifarescha
Coro Claudio Monteverdi
Bruno Gini

Лог создания рипа

Exact Audio Copy V1.0 beta 3 from 29. August 2011
EAC extraction logfile from 6. February 2014, 18:07
Ensemble La Pifarescha, Coro Claudio Monteverdi, Bruno Gini / Francesco Cavalli - Five Magnificat and other sacred works
Used drive : HL-DT-STDVDRRW GWA-4164B Adapter: 5 ID: 0
Read mode : SecureUtilize accurate stream : YesDefeat audio cache : YesMake use of C2 pointers : No
Read offset correction : 102Overread into Lead-In and Lead-Out : NoFill up missing offset samples with silence : YesDelete leading and trailing silent blocks : NoNull samples used in CRC calculations : YesUsed interface : Native Win32 interface for Win NT & 2000
Used output format : User Defined EncoderSelected bitrate : 896 kBit/sQuality : HighAdd ID3 tag : NoCommand line compressor : C:\Program Files\Exact Audio Copy\FLAC\FLAC.EXEAdditional command line options : -V -8 %source%
TOC of the extracted CD
Track | Start | Length | Start sector | End sector --------------------------------------------------------- 1 | 0:00.00 | 10:29.27 | 0 | 47201 2 | 10:29.27 | 15:46.33 | 47202 | 118184 3 | 26:15.60 | 4:44.72 | 118185 | 139556 4 | 31:00.57 | 5:18.57 | 139557 | 163463 5 | 36:19.39 | 6:57.72 | 163464 | 194810 6 | 43:17.36 | 3:31.44 | 194811 | 210679 7 | 46:49.05 | 9:06.24 | 210680 | 251653 8 | 55:55.29 | 3:56.49 | 251654 | 269402 9 | 59:52.03 | 11:56.62 | 269403 | 323164
Range status and errors
Selected range
Filename D:\temp\Music\Cavalli - Five Magnificat\Cavalli - Five Magnificat.wav
Peak level 100.0 % Extraction speed 2.9 X Range quality 100.0 % Test CRC 2D0D1743 Copy CRC 2D0D1743 Copy OK
No errors occurred
AccurateRip summary
Track 1 accurately ripped (confidence 1) [24E8D634] (AR v2)Track 2 accurately ripped (confidence 1) [21ED4225] (AR v2)Track 3 accurately ripped (confidence 1) [5401317C] (AR v2)Track 4 accurately ripped (confidence 1) [53CA87A8] (AR v2)Track 5 accurately ripped (confidence 1) [6849E505] (AR v2)Track 6 accurately ripped (confidence 1) [2E2FFF90] (AR v2)Track 7 accurately ripped (confidence 1) [C11CA51B] (AR v2)Track 8 accurately ripped (confidence 1) [E64A342A] (AR v2)Track 9 accurately ripped (confidence 1) [C4728D45] (AR v2)
All tracks accurately ripped
End of status report
==== Log checksum 1396EBBC647E2D614CAE6F91988B6E9A93215241C340A3EF3AA3DF8562ABA2A3 ====
[teatrix.ru].t7959.torrent 
Торрент: Зарегистрирован [ 2015-10-14 02:42 ] · BBC5081787CC7AB9A709C7C9B2AE995371AF9A3A

Скачать .torrent

Скачать

26 KB

Статус: проверено
Скачан: 0 раз
Размер: 315 MB
terms.php



Быстрый ответ

Имя:

      
Для отправки сообщений необходимо включить JavaScript
Показать сообщения:    

Текущее время: 03-Дек 09:50

Часовой пояс: UTC + 3


Вы можете начинать темы
Вы можете отвечать на сообщения
Вы не можете редактировать свои сообщения
Вы не можете удалять свои сообщения
Вы не можете голосовать в опросах
Вы не можете прикреплять файлы к сообщениям
Вы можете скачивать файлы