(Classical) Allegri - Miserere; Messe Vidi Turbam Magnum; Motets (A Sei Voci) - 1994, FLAC (image+.cue) lossless


Статистика раздачи [Обновить пиров]
Размер:  244 MB   |    Зарегистрирован:  1 год 3 месяца   |    Скачан:  0 раз

Полного источника не было: Никогда

 
   
 
 
 

[Цитировать]

Allegri - Miserere; Messe Vidi Turbam Magnum; Motets (A Sei Voci)
Жанр: Classical
Год издания диска: 1994
Издатель (лейбл): Astree
Номер по каталогу: E 8524
Аудиокодек: FLAC
Тип рипа: image+.cue
Битрейт аудио: lossless
Продолжительность: 61'37
Источник: собственный рип
Наличие сканов в содержимом раздачи: да
Исполнители:
A Sei Voci
Треклист:
1. Miserere a neuf voix, version avec ornamentations baroques (14:33)
2. Messe Vidi Turbam Magnam: I. Introit: statuit ei dominum (2:50)
3. II. Kyrie (2:39)
4. III. Gloria (3:20)
5. IV. Graduel: exaltent eum (3:03)
6. V. Credo (6:33)
7. VI. Sanctus (3:19)
8. VII. Agnus dei (3:21)
9. De ore prudentis, motet a trois voix et continuo (1:52)
10. Repleti sunt omnes, motet a trois voix et continuo (1:41)
11. Cantate domino, motet a quatre voix et continuo (3:11)
12. Miserere a neuf voix (15:20)

LOG EAC CD:

Exact Audio Copy V1.0 beta 3 from 29. August 2011
EAC extraction logfile from 30. April 2014, 17:32
A Sei Voci / Allegri - Miserere, Messe, Motets
Used drive : PIONEER DVD-RW DVR-218L Adapter: 0 ID: 1
Read mode : Secure
Utilize accurate stream : Yes
Defeat audio cache : Yes
Make use of C2 pointers : No
Read offset correction : 6
Overread into Lead-In and Lead-Out : No
Fill up missing offset samples with silence : Yes
Delete leading and trailing silent blocks : No
Null samples used in CRC calculations : Yes
Used interface : Native Win32 interface for Win NT & 2000
Used output format : User Defined Encoder
Selected bitrate : 128 kBit/s
Quality : High
Add ID3 tag : No
Command line compressor : C:\Program Files\Exact Audio Copy\Flac\flac.exe
Additional command line options : -V -8 -T "Date=%year%" -T "Genre=%genre%" %source%
TOC of the extracted CD
Track | Start | Length | Start sector | End sector
---------------------------------------------------------
1 | 0:00.33 | 14:33.32 | 33 | 65539
2 | 14:33.65 | 2:50.03 | 65540 | 78292
3 | 17:23.68 | 2:39.12 | 78293 | 90229
4 | 20:03.05 | 3:20.53 | 90230 | 105282
5 | 23:23.58 | 3:03.27 | 105283 | 119034
6 | 26:27.10 | 6:33.45 | 119035 | 148554
7 | 33:00.55 | 3:19.10 | 148555 | 163489
8 | 36:19.65 | 3:21.18 | 163490 | 178582
9 | 39:41.08 | 1:52.27 | 178583 | 187009
10 | 41:33.35 | 1:41.63 | 187010 | 194647
11 | 43:15.23 | 3:11.22 | 194648 | 208994
12 | 46:26.45 | 15:20.05 | 208995 | 277999
Range status and errors
Selected range
Filename C:\Program Files\Exact Audio Copy\Flac\Allegri - Miserere, Messe, Motets.wav
Peak level 100.0 %
Extraction speed 1.8 X
Range quality 100.0 %
Test CRC 2D06551D
Copy CRC 2D06551D
Copy OK
No errors occurred
End of status report
==== Log checksum EDF648EDB4DB6E5151FB4E6023E508D69333AA673C2667C60934006F49CAE215 ====
mp3
[teatrix.ru].t7961.torrent 
Торрент: Зарегистрирован [ 2015-10-14 02:42 ] · 645276A2CF2205D85B6E27B940555BD01A2673CA

Скачать .torrent

Скачать

20 KB

Статус: проверено
Скачан: 0 раз
Размер: 244 MB
terms.php



Быстрый ответ

Имя:

      
Для отправки сообщений необходимо включить JavaScript
Показать сообщения:    

Текущее время: 18-Янв 00:23

Часовой пояс: UTC + 3


Вы можете начинать темы
Вы можете отвечать на сообщения
Вы не можете редактировать свои сообщения
Вы не можете удалять свои сообщения
Вы не можете голосовать в опросах
Вы не можете прикреплять файлы к сообщениям
Вы можете скачивать файлы