(Classical) Komitas Vartapet - Armenian Divine Liturgy (Hover- Chamber Choir of Armenia, Sona Hovhannisyan) - 2006, FLAC (image+.cue) lossless


Статистика раздачи [Обновить пиров]
Размер:  517 MB   |    Зарегистрирован:  1 год 1 месяц   |    Скачан:  0 раз

Полного источника не было: Никогда

 
   
 
 
 

[Цитировать]

Komitas Vartapet - Armenian Divine Liturgy (Hover- Chamber Choir of Armenia, Sona Hovhannisyan)
Жанр: Classical
Год издания диска: 2006
Издатель (лейбл): HOVER
Аудиокодек: FLAC
Тип рипа: image+.cue
Битрейт аудио: lossless
Продолжительность: CD1:52’39, CD2'54:57
Источник: собственный рип
Наличие сканов в содержимом раздачи: да
Треклист:
CD1
1. O Mystery Deep (4:39)
2. Chosen of God (4:01)
3. In This Place (5:29)
4. Through The Intercession Of Your Virgin Mother (3:22)
5. First Day Of The Week (Sunday) (4:05)
6. Praise The Lord, Jerusalem (3:37)
7. The Trisagion (0:56)
8. Litany (6:50)
9. The Profession Of The Faith (7:31)
10. The Body Of The Lord (1:29)
11. Who Is Like The Lord (3:28)
12. Litany (2:16)
13. Christ In Our Midst Has Been Revealed (1:11)
14. Let Us Stand In Awe (3:45)
CD2
1. The Sanctus (4:39)
2. Heavenly Father (1:11)
3. In All Things Blessed Are You (1:30)
4. Son Of God (1:13)
5. Spirit Of God (1:38)
6. Intercessions (5:47)
7. Thanksgiving (1:39)
8. Litany (5:34)
9. The Lord's Prayer (3:17)
10. The One Holy (2:42)
11. Amen. Holy Is The Father (3:11)
12. Lord, Have Mercy (5:02)
13. The Hymn Of Communion (3:37)
14. We Have Been Filled With Your Goodness (1:54)
15. We Give Thanks To You (3:43)
16. Blessed Be The Name Of The Lord (8:20)
Исполнители:
'Hover' Chamber Choir of Armenia,
Sona Hovhannisyan - Conductor

LOG EAC CD1:

Exact Audio Copy V0.99 prebeta 4 from 23. January 2008
EAC extraction logfile from 8. April 2010, 23:03
Hovhannisyan S., Chamber Choir of Armenia / Hover. Armenian Divine Liturgy - Komitas Vartapet - CD 1
Used drive : ATAPI DVD A DH20A4P Adapter: 2 ID: 1
Read mode : Secure
Utilize accurate stream : Yes
Defeat audio cache : Yes
Make use of C2 pointers : No
Read offset correction : 6
Overread into Lead-In and Lead-Out : No
Fill up missing offset samples with silence : Yes
Delete leading and trailing silent blocks : No
Null samples used in CRC calculations : Yes
Used interface : Installed external ASPI interface
Used output format : User Defined Encoder
Selected bitrate : 768 kBit/s
Quality : High
Add ID3 tag : No
Command line compressor : C:\Program Files\Exact Audio Copy\Flac\flac.exe
Additional command line options : -6 -V -T "ARTIST=%a" -T "TITLE=%t" -T "ALBUM=%g" -T "DATE=%y" -T "TRACKNUMBER=%n" -T "GENRE=%m" -T "COMMENT=%e" %s -o %d
TOC of the extracted CD
Track | Start | Length | Start sector | End sector
---------------------------------------------------------
1 | 0:00.00 | 4:39.37 | 0 | 20961
2 | 4:39.37 | 4:01.11 | 20962 | 39047
3 | 8:40.48 | 5:29.39 | 39048 | 63761
4 | 14:10.12 | 3:22.36 | 63762 | 78947
5 | 17:32.48 | 4:05.04 | 78948 | 97326
6 | 21:37.52 | 3:37.34 | 97327 | 113635
7 | 25:15.11 | 0:56.72 | 113636 | 117907
8 | 26:12.08 | 6:50.32 | 117908 | 148689
9 | 33:02.40 | 7:31.01 | 148690 | 182515
10 | 40:33.41 | 1:29.41 | 182516 | 189231
11 | 42:03.07 | 3:28.59 | 189232 | 204890
12 | 45:31.66 | 2:16.61 | 204891 | 215151
13 | 47:48.52 | 1:11.51 | 215152 | 220527
14 | 49:00.28 | 3:45.72 | 220528 | 237474
Range status and errors
Selected range
Filename C:\Program Files\Exact Audio Copy\Flac\Hover. Armenian Divine Liturgy - Komitas Vartapet - CD 1.wav
Peak level 100.0 %
Range quality 100.0 %
Test CRC BBB738B7
Copy CRC BBB738B7
Copy OK
No errors occurred
AccurateRip summary
Track 1 accurately ripped (confidence 2) [8CB19B25]
Track 2 accurately ripped (confidence 2) [87E6A39F]
Track 3 accurately ripped (confidence 2) [0BB8929C]
Track 4 accurately ripped (confidence 2) [6DB5424C]
Track 5 accurately ripped (confidence 2) [C1D95B14]
Track 6 accurately ripped (confidence 2) [282F6354]
Track 7 accurately ripped (confidence 2) [2785550F]
Track 8 accurately ripped (confidence 2) [F7B267DF]
Track 9 accurately ripped (confidence 2) [5B74E576]
Track 10 accurately ripped (confidence 2) [5927287A]
Track 11 accurately ripped (confidence 2) [47D033AA]
Track 12 accurately ripped (confidence 2) [6331E72C]
Track 13 accurately ripped (confidence 2) [12950E2E]
Track 14 accurately ripped (confidence 2) [3B9F1960]
All tracks accurately ripped
End of status report

LOG EAC CD2:

Exact Audio Copy V0.99 prebeta 4 from 23. January 2008
EAC extraction logfile from 8. April 2010, 23:46
Hovhannisyan S., Chamber Choir of Armenia / Hover. Armenian Divine Liturgy - Komitas Vartapet - CD 2
Used drive : ATAPI DVD A DH20A4P Adapter: 2 ID: 1
Read mode : Secure
Utilize accurate stream : Yes
Defeat audio cache : Yes
Make use of C2 pointers : No
Read offset correction : 6
Overread into Lead-In and Lead-Out : No
Fill up missing offset samples with silence : Yes
Delete leading and trailing silent blocks : No
Null samples used in CRC calculations : Yes
Used interface : Installed external ASPI interface
Used output format : User Defined Encoder
Selected bitrate : 768 kBit/s
Quality : High
Add ID3 tag : No
Command line compressor : C:\Program Files\Exact Audio Copy\Flac\flac.exe
Additional command line options : -6 -V -T "ARTIST=%a" -T "TITLE=%t" -T "ALBUM=%g" -T "DATE=%y" -T "TRACKNUMBER=%n" -T "GENRE=%m" -T "COMMENT=%e" %s -o %d
TOC of the extracted CD
Track | Start | Length | Start sector | End sector
---------------------------------------------------------
1 | 0:00.00 | 4:39.68 | 0 | 20992
2 | 4:39.68 | 1:11.49 | 20993 | 26366
3 | 5:51.42 | 1:30.41 | 26367 | 33157
4 | 7:22.08 | 1:13.30 | 33158 | 38662
5 | 8:35.38 | 1:38.18 | 38663 | 46030
6 | 10:13.56 | 5:47.31 | 46031 | 72086
7 | 16:01.12 | 1:39.40 | 72087 | 79551
8 | 17:40.52 | 5:34.36 | 79552 | 104637
9 | 23:15.13 | 3:17.71 | 104638 | 119483
10 | 26:33.09 | 2:42.02 | 119484 | 131635
11 | 29:15.11 | 3:11.71 | 131636 | 146031
12 | 32:27.07 | 5:02.29 | 146032 | 168710
13 | 37:29.36 | 3:37.66 | 168711 | 185051
14 | 41:07.27 | 1:54.44 | 185052 | 193645
15 | 43:01.71 | 3:43.52 | 193646 | 210422
16 | 46:45.48 | 8:20.11 | 210423 | 247933
Range status and errors
Selected range
Filename C:\Program Files\Exact Audio Copy\Flac\Hover. Armenian Divine Liturgy - Komitas Vartapet - CD 2.wav
Peak level 100.0 %
Range quality 100.0 %
Test CRC 3A6120F2
Copy CRC 3A6120F2
Copy OK
No errors occurred
AccurateRip summary
Track 1 accurately ripped (confidence 2) [7D87FAE5]
Track 2 accurately ripped (confidence 2) [0D462476]
Track 3 accurately ripped (confidence 2) [AA48F2D2]
Track 4 accurately ripped (confidence 2) [FDCCADDF]
Track 5 accurately ripped (confidence 2) [EFE2F9FB]
Track 6 accurately ripped (confidence 2) [B002586F]
Track 7 accurately ripped (confidence 2) [2C6C4FA3]
Track 8 accurately ripped (confidence 2) [A26B9D3C]
Track 9 accurately ripped (confidence 2) [3972D4BF]
Track 10 accurately ripped (confidence 2) [9A741C26]
Track 11 accurately ripped (confidence 2) [09A90F44]
Track 12 accurately ripped (confidence 2) [EBB322FF]
Track 13 accurately ripped (confidence 2) [56EB4D8C]
Track 14 accurately ripped (confidence 2) [D3BFE654]
Track 15 accurately ripped (confidence 2) [A12AFE47]
Track 16 accurately ripped (confidence 2) [A2F3785D]
All tracks accurately ripped
End of status report
[teatrix.ru].t7962.torrent 
Торрент: Зарегистрирован [ 2015-10-14 02:42 ] · D86F169B54E1050A76934A3F63CB0568766E8711

Скачать .torrent

Скачать

11 KB

Статус: проверено
Скачан: 0 раз
Размер: 517 MB
terms.php



Быстрый ответ

Имя:

      
Для отправки сообщений необходимо включить JavaScript
Показать сообщения:    

Текущее время: 04-Дек 00:46

Часовой пояс: UTC + 3


Вы можете начинать темы
Вы можете отвечать на сообщения
Вы не можете редактировать свои сообщения
Вы не можете удалять свои сообщения
Вы не можете голосовать в опросах
Вы не можете прикреплять файлы к сообщениям
Вы можете скачивать файлы