(Classical) Mozart - Requiem in D minor, K. 626 (Daniel Barenboim, Orchestre et Choeurs de l\'Opera de Paris; Kathleen Battle, Ann Murray, David Rendall, Matti Salminen) - 1985, FLAC (tracks+.cue) lossless


Статистика раздачи [Обновить пиров]
Размер:  238 MB   |    Зарегистрирован:  1 год 1 месяц   |    Скачан:  0 раз

Полного источника не было: Никогда

 
   
 
 
 

[Цитировать]

Wolfgang Amadeus Mozart - Requiem in D minor, K. 626
Жанр: Classical
Год издания диска: 1985
Издатель (лейбл): EMI Classics
Номер по каталогу: CDC 7 47342 2
Аудиокодек: FLAC
Тип рипа: tracks+.cue
Битрейт аудио: lossless
Продолжительность: 55:39
Источник: собственный рип
Наличие сканов в содержимом раздачи: да
Треклист:
1. I. Introitus: Requiem Aeternam (5:30)
2. II. Kyrie Eleison (2:46)
III: Sequenz:
3. a) Dies Irae (1:46)
4. b) Tuba Mirum (4:15)
5. c) Rex Tremendae (2:29)
6. d) Recordare (6:16)
7. e) Confutatis (2:45)
8. f) Lacrimosa (3:14)
IV: Offertorium :
9. a) Domine Jesu Christe (4:02)
10. b) Hostias et Precis (5:12)
11. V. Sanctus (1:44)
12. VI. Benedictus (6:07)
13. VII. Agnus Dei (3:16)
14. VIII. Communio: Lux Aeterna (6:17)
Исполнители:
Kathleen Battle - Soprano,
Ann Murray - Mezzo-soprano,
David Rendall - Tenor,
Matti Salminen - Bass
Choeurs et Orchestre de Paris
Daniel Barenboim
(chorus Master: Arthur Oldham)

LOG EAC:

Exact Audio Copy V1.0 beta 3 from 29. August 2011
EAC extraction logfile from 23. April 2014, 20:00
Barenboim, Battle, Murray, Rendall, Salminen / Mozart - Requiem
Used drive : PIONEER DVD-RW DVR-221L Adapter: 0 ID: 2
Read mode : Secure
Utilize accurate stream : Yes
Defeat audio cache : Yes
Make use of C2 pointers : No
Read offset correction : 6
Overread into Lead-In and Lead-Out : No
Fill up missing offset samples with silence : Yes
Delete leading and trailing silent blocks : No
Null samples used in CRC calculations : Yes
Used interface : Native Win32 interface for Win NT & 2000
Gap handling : Appended to previous track
Used output format : User Defined Encoder
Selected bitrate : 768 kBit/s
Quality : High
Add ID3 tag : No
Command line compressor : C:\Program Files\Exact Audio Copy\Flac\flac.exe
Additional command line options : -6 -V -T "ARTIST=%artist%" -T "TITLE=%title%" -T "ALBUM=%albumtitle%" -T "DATE=%year%" -T "TRACKNUMBER=%tracknr%" -T "GENRE=%genre%" -T "COMMENT=%comment%" -T "ALBUMARTIST=%albuminterpret%" -T "COMPOSER=%composer%" -T "DISCNUMBER=%cdnumber%" -T "TOTALDISCS=%totalcds%" -T "TOTALTRACKS=%numtracks%" %source% -o %dest%
TOC of the extracted CD
Track | Start | Length | Start sector | End sector
---------------------------------------------------------
1 | 0:00.33 | 5:30.70 | 33 | 24852
2 | 5:31.28 | 2:46.25 | 24853 | 37327
3 | 8:17.53 | 1:46.32 | 37328 | 45309
4 | 10:04.10 | 4:15.30 | 45310 | 64464
5 | 14:19.40 | 2:28.68 | 64465 | 75632
6 | 16:48.33 | 6:16.37 | 75633 | 103869
7 | 23:04.70 | 2:45.13 | 103870 | 116257
8 | 25:50.08 | 3:14.05 | 116258 | 130812
9 | 29:04.13 | 4:01.70 | 130813 | 148957
10 | 33:06.08 | 5:11.62 | 148958 | 172344
11 | 38:17.70 | 1:43.50 | 172345 | 180119
12 | 40:01.45 | 6:07.23 | 180120 | 207667
13 | 46:08.68 | 3:15.45 | 207668 | 222337
14 | 49:24.38 | 6:17.27 | 222338 | 250639
Track 1
Filename E:\EAC\01 I. Introitus. Requiem Aeternam.wav
Pre-gap length 0:00:02.33
Peak level 83.8 %
Extraction speed 3.0 X
Track quality 100.0 %
Test CRC B7BD0F60
Copy CRC B7BD0F60
Accurately ripped (confidence 2) [31615865] (AR v1)
Copy OK
Track 2
Filename E:\EAC\02 II. Kyrie Eleison.wav
Pre-gap length 0:00:00.03
Peak level 75.1 %
Extraction speed 2.2 X
Track quality 99.9 %
Test CRC 8E59A7C2
Copy CRC 8E59A7C2
Accurately ripped (confidence 2) [DD80119F] (AR v1)
Copy OK
Track 3
Filename E:\EAC\03 III- Sequenz. Dies Irae.wav
Pre-gap length 0:00:00.03
Peak level 64.4 %
Extraction speed 2.8 X
Track quality 100.0 %
Test CRC 77797162
Copy CRC 77797162
Accurately ripped (confidence 2) [F1189EB8] (AR v1)
Copy OK
Track 4
Filename E:\EAC\04 Tuba Mirum.wav
Pre-gap length 0:00:00.02
Peak level 36.4 %
Extraction speed 3.6 X
Track quality 100.0 %
Test CRC BC746C4C
Copy CRC BC746C4C
Accurately ripped (confidence 2) [C04C0D19] (AR v1)
Copy OK
Track 5
Filename E:\EAC\05 Rex Tremendae.wav
Pre-gap length 0:00:00.02
Peak level 85.1 %
Extraction speed 3.4 X
Track quality 100.0 %
Test CRC A406952B
Copy CRC A406952B
Accurately ripped (confidence 2) [606084EE] (AR v1)
Copy OK
Track 6
Filename E:\EAC\06 Recordare.wav
Pre-gap length 0:00:00.03
Peak level 85.1 %
Extraction speed 3.5 X
Track quality 99.9 %
Test CRC AF9C36E0
Copy CRC AF9C36E0
Accurately ripped (confidence 2) [8F739DE8] (AR v1)
Copy OK
Track 7
Filename E:\EAC\07 Confutatis.wav
Pre-gap length 0:00:00.02
Peak level 53.5 %
Extraction speed 4.0 X
Track quality 100.0 %
Test CRC 6B7CCACD
Copy CRC 6B7CCACD
Accurately ripped (confidence 2) [6285B4AD] (AR v1)
Copy OK
Track 8
Filename E:\EAC\08 Lacrimosa.wav
Pre-gap length 0:00:00.03
Peak level 72.4 %
Extraction speed 4.2 X
Track quality 100.0 %
Test CRC 21EAD82B
Copy CRC 21EAD82B
Accurately ripped (confidence 2) [42BA8EB4] (AR v1)
Copy OK
Track 9
Filename E:\EAC\09 IV- Offertorium. Domine Jesu Christe.wav
Pre-gap length 0:00:00.03
Peak level 69.1 %
Extraction speed 4.5 X
Track quality 100.0 %
Test CRC 9E79A46B
Copy CRC 9E79A46B
Accurately ripped (confidence 2) [1E92D8FB] (AR v1)
Copy OK
Track 10
Filename E:\EAC\10 Hostias et Precis.wav
Pre-gap length 0:00:00.03
Peak level 62.4 %
Extraction speed 5.0 X
Track quality 100.0 %
Test CRC 5B7FE4FD
Copy CRC 5B7FE4FD
Accurately ripped (confidence 2) [1860CB28] (AR v1)
Copy OK
Track 11
Filename E:\EAC\11 V. Sanctus.wav
Pre-gap length 0:00:00.02
Peak level 85.1 %
Extraction speed 4.2 X
Track quality 100.0 %
Test CRC 89FD3F48
Copy CRC 89FD3F48
Accurately ripped (confidence 2) [848638E4] (AR v1)
Copy OK
Track 12
Filename E:\EAC\12 VI. Benedictus.wav
Pre-gap length 0:00:00.02
Peak level 62.2 %
Extraction speed 5.4 X
Track quality 100.0 %
Test CRC 59B1243C
Copy CRC 59B1243C
Accurately ripped (confidence 2) [511270ED] (AR v1)
Copy OK
Track 13
Filename E:\EAC\13 VII. Agnus Dei.wav
Pre-gap length 0:00:00.03
Peak level 65.6 %
Extraction speed 5.2 X
Track quality 100.0 %
Test CRC 35F98F99
Copy CRC 35F98F99
Cannot be verified as accurate (confidence 10) [91E6DC3A], AccurateRip returned [6C21660C] (AR v2)
Copy OK
Track 14
Filename E:\EAC\14 VIII. Communio- Lux Aeterna.wav
Pre-gap length 0:00:00.03
Peak level 77.4 %
Extraction speed 5.8 X
Track quality 100.0 %
Test CRC 1AE06F8F
Copy CRC 1AE06F8F
Accurately ripped (confidence 2) [F4A83D37] (AR v1)
Copy OK
13 трек(и) скопированы точно
1 трек(и) не удалось проверить на точность
Some tracks could not be verified as accurate
No errors occurred
End of status report
==== Log checksum E6E03AE6B41B33669680C023DEF9E865D341C17A50A59F2A93D85B1F2D0B0823 ====

(.CUE)

REM GENRE Classical
REM DATE 1985
REM DISCID CF0D0D0E
REM COMMENT "ExactAudioCopy v1.0b3"
PERFORMER "Barenboim, Battle, Murray, Rendall, Salminen"
TITLE "Mozart - Requiem"
FILE "01 I. Introitus. Requiem Aeternam.wav" WAVE
TRACK 01 AUDIO
TITLE "I. Introitus. Requiem Aeternam"
PERFORMER "Barenboim, Battle, Murray, Rendall, Salminen"
PREGAP 00:00:33
INDEX 01 00:00:00
TRACK 02 AUDIO
TITLE "II. Kyrie Eleison"
PERFORMER "Barenboim, Battle, Murray, Rendall, Salminen"
INDEX 00 05:30:67
FILE "02 II. Kyrie Eleison.wav" WAVE
INDEX 01 00:00:00
TRACK 03 AUDIO
TITLE "III: Sequenz. Dies Irae"
PERFORMER "Barenboim, Battle, Murray, Rendall, Salminen"
INDEX 00 02:46:22
FILE "03 III- Sequenz. Dies Irae.wav" WAVE
INDEX 01 00:00:00
TRACK 04 AUDIO
TITLE "Tuba Mirum"
PERFORMER "Barenboim, Battle, Murray, Rendall, Salminen"
INDEX 00 01:46:30
FILE "04 Tuba Mirum.wav" WAVE
INDEX 01 00:00:00
TRACK 05 AUDIO
TITLE "Rex Tremendae"
PERFORMER "Barenboim, Battle, Murray, Rendall, Salminen"
INDEX 00 04:15:28
FILE "05 Rex Tremendae.wav" WAVE
INDEX 01 00:00:00
TRACK 06 AUDIO
TITLE "Recordare"
PERFORMER "Barenboim, Battle, Murray, Rendall, Salminen"
INDEX 00 02:28:65
FILE "06 Recordare.wav" WAVE
INDEX 01 00:00:00
TRACK 07 AUDIO
TITLE "Confutatis"
PERFORMER "Barenboim, Battle, Murray, Rendall, Salminen"
INDEX 00 06:16:35
FILE "07 Confutatis.wav" WAVE
INDEX 01 00:00:00
TRACK 08 AUDIO
TITLE "Lacrimosa"
PERFORMER "Barenboim, Battle, Murray, Rendall, Salminen"
INDEX 00 02:45:10
FILE "08 Lacrimosa.wav" WAVE
INDEX 01 00:00:00
TRACK 09 AUDIO
TITLE "IV: Offertorium. Domine Jesu Christe"
PERFORMER "Barenboim, Battle, Murray, Rendall, Salminen"
INDEX 00 03:14:02
FILE "09 IV- Offertorium. Domine Jesu Christe.wav" WAVE
INDEX 01 00:00:00
TRACK 10 AUDIO
TITLE "Hostias et Precis"
PERFORMER "Barenboim, Battle, Murray, Rendall, Salminen"
INDEX 00 04:01:67
FILE "10 Hostias et Precis.wav" WAVE
INDEX 01 00:00:00
TRACK 11 AUDIO
TITLE "V. Sanctus"
PERFORMER "Barenboim, Battle, Murray, Rendall, Salminen"
INDEX 00 05:11:60
FILE "11 V. Sanctus.wav" WAVE
INDEX 01 00:00:00
TRACK 12 AUDIO
TITLE "VI. Benedictus"
PERFORMER "Barenboim, Battle, Murray, Rendall, Salminen"
INDEX 00 01:43:48
FILE "12 VI. Benedictus.wav" WAVE
INDEX 01 00:00:00
TRACK 13 AUDIO
TITLE "VII. Agnus Dei"
PERFORMER "Barenboim, Battle, Murray, Rendall, Salminen"
INDEX 00 06:07:20
FILE "13 VII. Agnus Dei.wav" WAVE
INDEX 01 00:00:00
TRACK 14 AUDIO
TITLE "VIII. Communio: Lux Aeterna"
PERFORMER "Barenboim, Battle, Murray, Rendall, Salminen"
INDEX 00 03:15:42
FILE "14 VIII. Communio- Lux Aeterna.wav" WAVE
INDEX 01 00:00:00
[teatrix.ru].t7963.torrent 
Торрент: Зарегистрирован [ 2015-10-14 02:42 ] · 9502FD3A8B8B45E39B0A73B95EFB7018FFFAE391

Скачать .torrent

Скачать

20 KB

Статус: проверено
Скачан: 0 раз
Размер: 238 MB
terms.php



Быстрый ответ

Имя:

      
Для отправки сообщений необходимо включить JavaScript
Показать сообщения:    

Текущее время: 04-Дек 13:17

Часовой пояс: UTC + 3


Вы можете начинать темы
Вы можете отвечать на сообщения
Вы не можете редактировать свои сообщения
Вы не можете удалять свои сообщения
Вы не можете голосовать в опросах
Вы не можете прикреплять файлы к сообщениям
Вы можете скачивать файлы