(Classical) Francis Poulenc - Gloria, Stabat Mater (Ozawa, Tanglewood Festival Chorus, Boston Symphony Orchestra; Battle) - 1989, FLAC (tracks+.cue) lossless


Статистика раздачи [Обновить пиров]
Размер:  224 MB   |    Зарегистрирован:  1 год 1 месяц   |    Скачан:  0 раз

Полного источника не было: Никогда

 
   
 
 
 

[Цитировать]

Francis Poulenc - Gloria, Stabat Mater (Ozawa, Battle)
Жанр: Classical
Год издания диска: 1989
Издатель (лейбл): Deutsche Grammophon
Номер по каталогу: 427 3042 7
Аудиокодек: FLAC
Тип рипа: tracks+.cue
Битрейт аудио: lossless
Продолжительность: 51’56
Источник: собственный рип
Наличие сканов в содержимом раздачи: да
Треклист:
1. Gloria. I. Maestoso (2:26)
2. II. Laudamus te. Tres vite et joyeux (2:47)
3. III. Domine Deus (soprano). Tres lent et calme (4:36)
4. IV. Domine Fili unigenite. Tres vite et joyeux (1:22)
5. V. Domine Deus, Agnus Dei (soprano). Bien lent (5:55)
6. VI. Qui sedes ad dexteram Patris (soprano). Maestoso. Allegretto (6:19)
7. Stabat Mater. I. Stabat Mater dolorosa. Tres calme (3:54)
8. II. Cujus animam gementem. Allegro molto (tres violent) (0:57)
9. III. O quam tristis. Tres lent (2:20)
10. IV. Quae maerebat. Andantino (1:18)
11. V. Quis est homo. Allegro molto (1:18)
12. VI. Vidit suum (soprano). Andante (3:32)
13. VII. Eja, Mater. Allegro (1:03)
14. VIII. Fac, ut ardeat. Maestoso (2:02)
15. IX. Sancta Mater. Moderato (3:00)
16. X. Fac, ut portem (soprano). Tempo de sarabande (3:38)
17. XI. Inflammatus et accensus. Anime et tres rhythme (1:45)
18. XII. Quando corpus (soprano). Tres calme (3:44)
Исполнители:
Kathleen Battle
Tanglewood Festival Chorus
Boston Symphony Orchestra
Seiji Ozawa

LOG EAC:

Exact Audio Copy V1.0 beta 3 from 29. August 2011
EAC extraction logfile from 21. April 2014, 22:38
Ozawa, Battle, BSO / Poulenc: Gloria, Stabat Mater
Used drive : PIONEER DVD-RW DVR-221L Adapter: 0 ID: 2
Read mode : Secure
Utilize accurate stream : Yes
Defeat audio cache : Yes
Make use of C2 pointers : No
Read offset correction : 6
Overread into Lead-In and Lead-Out : No
Fill up missing offset samples with silence : Yes
Delete leading and trailing silent blocks : No
Null samples used in CRC calculations : Yes
Used interface : Native Win32 interface for Win NT & 2000
Gap handling : Appended to previous track
Used output format : User Defined Encoder
Selected bitrate : 768 kBit/s
Quality : High
Add ID3 tag : No
Command line compressor : C:\Program Files\Exact Audio Copy\Flac\flac.exe
Additional command line options : -6 -V -T "ARTIST=%artist%" -T "TITLE=%title%" -T "ALBUM=%albumtitle%" -T "DATE=%year%" -T "TRACKNUMBER=%tracknr%" -T "GENRE=%genre%" -T "COMMENT=%comment%" -T "ALBUMARTIST=%albuminterpret%" -T "COMPOSER=%composer%" -T "DISCNUMBER=%cdnumber%" -T "TOTALDISCS=%totalcds%" -T "TOTALTRACKS=%numtracks%" %source% -o %dest%
TOC of the extracted CD
Track | Start | Length | Start sector | End sector
---------------------------------------------------------
1 | 0:00.33 | 2:26.10 | 33 | 10992
2 | 2:26.43 | 2:47.42 | 10993 | 23559
3 | 5:14.10 | 4:36.13 | 23560 | 44272
4 | 9:50.23 | 1:22.40 | 44273 | 50462
5 | 11:12.63 | 5:55.32 | 50463 | 77119
6 | 17:08.20 | 6:19.00 | 77120 | 105544
7 | 23:27.20 | 3:54.68 | 105545 | 123162
8 | 27:22.13 | 0:57.25 | 123163 | 127462
9 | 28:19.38 | 2:20.17 | 127463 | 137979
10 | 30:39.55 | 1:18.33 | 137980 | 143862
11 | 31:58.13 | 1:18.40 | 143863 | 149752
12 | 33:16.53 | 3:32.10 | 149753 | 165662
13 | 36:48.63 | 1:03.30 | 165663 | 170417
14 | 37:52.18 | 2:02.05 | 170418 | 179572
15 | 39:54.23 | 3:00.25 | 179573 | 193097
16 | 42:54.48 | 3:38.02 | 193098 | 209449
17 | 46:32.50 | 1:45.58 | 209450 | 217382
18 | 48:18.33 | 3:44.20 | 217383 | 234202
Track 1
Filename E:\EAC\01 Gloria- I. Gloria.wav
Pre-gap length 0:00:02.33
Peak level 96.1 %
Extraction speed 4.0 X
Track quality 100.0 %
Test CRC D142A39C
Copy CRC D142A39C
Accurately ripped (confidence 5) [DDF7F710] (AR v2)
Copy OK
Track 2
Filename E:\EAC\02 II. Laudamus te.wav
Pre-gap length 0:00:02.73
Peak level 90.6 %
Extraction speed 4.4 X
Track quality 100.0 %
Test CRC ACC0C47D
Copy CRC ACC0C47D
Accurately ripped (confidence 5) [1D759D53] (AR v2)
Copy OK
Track 3
Filename E:\EAC\03 III. Domine Deus.wav
Peak level 89.5 %
Extraction speed 5.1 X
Track quality 100.0 %
Test CRC C83E27AB
Copy CRC C83E27AB
Accurately ripped (confidence 5) [685D472E] (AR v2)
Copy OK
Track 4
Filename E:\EAC\04 IV. Domine Fili unigenite.wav
Pre-gap length 0:00:01.00
Peak level 98.7 %
Extraction speed 4.2 X
Track quality 100.0 %
Test CRC BCB46CF2
Copy CRC BCB46CF2
Accurately ripped (confidence 5) [3B1F9284] (AR v2)
Copy OK
Track 5
Filename E:\EAC\05 V. Domine Deus, Agnus Dei.wav
Pre-gap length 0:00:02.50
Peak level 79.8 %
Extraction speed 6.0 X
Track quality 100.0 %
Test CRC 693943D7
Copy CRC 693943D7
Accurately ripped (confidence 5) [97102A06] (AR v2)
Copy OK
Track 6
Filename E:\EAC\06 VI. Qui sedes ad dexteram Patris.wav
Pre-gap length 0:00:02.40
Peak level 97.9 %
Extraction speed 6.1 X
Track quality 100.0 %
Test CRC 1727F34D
Copy CRC 1727F34D
Accurately ripped (confidence 5) [A057DC6B] (AR v2)
Copy OK
Track 7
Filename E:\EAC\07 Stabat Mater- I. Stabat Mater dolorosa.wav
Pre-gap length 0:00:07.47
Peak level 72.8 %
Extraction speed 6.7 X
Track quality 100.0 %
Test CRC 9AF5E99F
Copy CRC 9AF5E99F
Accurately ripped (confidence 5) [BDEC80AA] (AR v2)
Copy OK
Track 8
Filename E:\EAC\08 II. Cujus animam gementem.wav
Pre-gap length 0:00:00.70
Peak level 71.8 %
Extraction speed 4.7 X
Track quality 100.0 %
Test CRC 31DB9508
Copy CRC 31DB9508
Accurately ripped (confidence 5) [4026CBBC] (AR v2)
Copy OK
Track 9
Filename E:\EAC\09 III. O quam tristis.wav
Pre-gap length 0:00:01.73
Peak level 36.8 %
Extraction speed 6.4 X
Track quality 100.0 %
Test CRC CD22BC01
Copy CRC CD22BC01
Accurately ripped (confidence 5) [1AD274AA] (AR v2)
Copy OK
Track 10
Filename E:\EAC\10 IV. Quae maerebat.wav
Pre-gap length 0:00:02.60
Peak level 37.4 %
Extraction speed 5.7 X
Track quality 100.0 %
Test CRC 94F6CCF6
Copy CRC 94F6CCF6
Accurately ripped (confidence 5) [06F367AC] (AR v2)
Copy OK
Track 11
Filename E:\EAC\11 V. Quis est homo.wav
Peak level 91.5 %
Extraction speed 5.6 X
Track quality 100.0 %
Test CRC DBFBDD04
Copy CRC DBFBDD04
Accurately ripped (confidence 5) [3B4E5721] (AR v2)
Copy OK
Track 12
Filename E:\EAC\12 VI. Vidit suum.wav
Pre-gap length 0:00:03.45
Peak level 45.6 %
Extraction speed 5.9 X
Track quality 99.9 %
Test CRC F914088B
Copy CRC F914088B
Accurately ripped (confidence 5) [69909BCF] (AR v2)
Copy OK
Track 13
Filename E:\EAC\13 VII. Eja, Mater.wav
Pre-gap length 0:00:03.05
Peak level 79.3 %
Extraction speed 3.4 X
Track quality 99.8 %
Test CRC AECEB4C6
Copy CRC AECEB4C6
Accurately ripped (confidence 5) [6B885871] (AR v2)
Copy OK
Track 14
Filename E:\EAC\14 VIII. Fac, ut ardeat.wav
Pre-gap length 0:00:01.55
Peak level 29.3 %
Extraction speed 6.5 X
Track quality 100.0 %
Test CRC AB80F3B0
Copy CRC AB80F3B0
Accurately ripped (confidence 5) [24939C84] (AR v2)
Copy OK
Track 15
Filename E:\EAC\15 IX. Sancta Mater.wav
Pre-gap length 0:00:00.28
Peak level 88.7 %
Extraction speed 7.5 X
Track quality 100.0 %
Test CRC 7F2B6602
Copy CRC 7F2B6602
Accurately ripped (confidence 5) [3F207783] (AR v2)
Copy OK
Track 16
Filename E:\EAC\16 X. Fac, ut portem.wav
Pre-gap length 0:00:01.68
Peak level 62.1 %
Extraction speed 8.0 X
Track quality 100.0 %
Test CRC C0C95507
Copy CRC C0C95507
Accurately ripped (confidence 5) [63116931] (AR v2)
Copy OK
Track 17
Filename E:\EAC\17 XI. Inflammatus et accensus.wav
Pre-gap length 0:00:00.37
Peak level 93.4 %
Extraction speed 7.0 X
Track quality 100.0 %
Test CRC 4BA451EC
Copy CRC 4BA451EC
Accurately ripped (confidence 5) [EB8B2868] (AR v2)
Copy OK
Track 18
Filename E:\EAC\18 XII. Quando corpus.wav
Peak level 83.2 %
Extraction speed 8.5 X
Track quality 100.0 %
Test CRC 87E1AC96
Copy CRC 87E1AC96
Accurately ripped (confidence 5) [B7D34EEA] (AR v2)
Copy OK
All tracks accurately ripped
No errors occurred
End of status report
==== Log checksum 3C49221EF6E5E12A590EFEE1CEDC436672D409A22C33A81B2269A80003092DBF ====

(.CUE)

REM GENRE Classical
REM DATE 1989
REM DISCID F60C3212
REM COMMENT "ExactAudioCopy v1.0b3"
PERFORMER "Ozawa, Battle, BSO"
TITLE "Poulenc: Gloria, Stabat Mater"
FILE "01 Gloria- I. Gloria.wav" WAVE
TRACK 01 AUDIO
TITLE "Gloria- I. Gloria"
PERFORMER "Ozawa, Battle, BSO"
PREGAP 00:00:33
INDEX 01 00:00:00
TRACK 02 AUDIO
TITLE "II. Laudamus te"
PERFORMER "Ozawa, Battle, BSO"
INDEX 00 02:23:12
FILE "02 II. Laudamus te.wav" WAVE
INDEX 01 00:00:00
FILE "03 III. Domine Deus.wav" WAVE
TRACK 03 AUDIO
TITLE "III. Domine Deus"
PERFORMER "Ozawa, Battle, BSO"
INDEX 01 00:00:00
TRACK 04 AUDIO
TITLE "IV. Domine Fili unigenite"
PERFORMER "Ozawa, Battle, BSO"
INDEX 00 04:35:13
FILE "04 IV. Domine Fili unigenite.wav" WAVE
INDEX 01 00:00:00
TRACK 05 AUDIO
TITLE "V. Domine Deus, Agnus Dei"
PERFORMER "Ozawa, Battle, BSO"
INDEX 00 01:19:65
FILE "05 V. Domine Deus, Agnus Dei.wav" WAVE
INDEX 01 00:00:00
TRACK 06 AUDIO
TITLE "VI. Qui sedes ad dexteram Patris"
PERFORMER "Ozawa, Battle, BSO"
INDEX 00 05:52:67
FILE "06 VI. Qui sedes ad dexteram Patris.wav" WAVE
INDEX 01 00:00:00
TRACK 07 AUDIO
TITLE "Stabat Mater- I. Stabat Mater dolorosa"
PERFORMER "Ozawa, Battle, BSO"
INDEX 00 06:11:28
FILE "07 Stabat Mater- I. Stabat Mater dolorosa.wav" WAVE
INDEX 01 00:00:00
TRACK 08 AUDIO
TITLE "II. Cujus animam gementem"
PERFORMER "Ozawa, Battle, BSO"
INDEX 00 03:53:73
FILE "08 II. Cujus animam gementem.wav" WAVE
INDEX 01 00:00:00
TRACK 09 AUDIO
TITLE "III. O quam tristis"
PERFORMER "Ozawa, Battle, BSO"
INDEX 00 00:55:27
FILE "09 III. O quam tristis.wav" WAVE
INDEX 01 00:00:00
TRACK 10 AUDIO
TITLE "IV. Quae maerebat"
PERFORMER "Ozawa, Battle, BSO"
INDEX 00 02:17:32
FILE "10 IV. Quae maerebat.wav" WAVE
INDEX 01 00:00:00
FILE "11 V. Quis est homo.wav" WAVE
TRACK 11 AUDIO
TITLE "V. Quis est homo"
PERFORMER "Ozawa, Battle, BSO"
INDEX 01 00:00:00
TRACK 12 AUDIO
TITLE "VI. Vidit suum"
PERFORMER "Ozawa, Battle, BSO"
INDEX 00 01:14:70
FILE "12 VI. Vidit suum.wav" WAVE
INDEX 01 00:00:00
TRACK 13 AUDIO
TITLE "VII. Eja, Mater"
PERFORMER "Ozawa, Battle, BSO"
INDEX 00 03:29:05
FILE "13 VII. Eja, Mater.wav" WAVE
INDEX 01 00:00:00
TRACK 14 AUDIO
TITLE "VIII. Fac, ut ardeat"
PERFORMER "Ozawa, Battle, BSO"
INDEX 00 01:01:50
FILE "14 VIII. Fac, ut ardeat.wav" WAVE
INDEX 01 00:00:00
TRACK 15 AUDIO
TITLE "IX. Sancta Mater"
PERFORMER "Ozawa, Battle, BSO"
INDEX 00 02:01:52
FILE "15 IX. Sancta Mater.wav" WAVE
INDEX 01 00:00:00
TRACK 16 AUDIO
TITLE "X. Fac, ut portem"
PERFORMER "Ozawa, Battle, BSO"
INDEX 00 02:58:32
FILE "16 X. Fac, ut portem.wav" WAVE
INDEX 01 00:00:00
TRACK 17 AUDIO
TITLE "XI. Inflammatus et accensus"
PERFORMER "Ozawa, Battle, BSO"
INDEX 00 03:37:40
FILE "17 XI. Inflammatus et accensus.wav" WAVE
INDEX 01 00:00:00
FILE "18 XII. Quando corpus.wav" WAVE
TRACK 18 AUDIO
TITLE "XII. Quando corpus"
PERFORMER "Ozawa, Battle, BSO"
INDEX 01 00:00:00
[teatrix.ru].t7964.torrent 
Торрент: Зарегистрирован [ 2015-10-14 02:42 ] · 58F748CD312DE82D32B57C29788409A1BCB19740

Скачать .torrent

Скачать

20 KB

Статус: проверено
Скачан: 0 раз
Размер: 224 MB
terms.php



Быстрый ответ

Имя:

      
Для отправки сообщений необходимо включить JavaScript
Показать сообщения:    

Текущее время: 08-Дек 23:07

Часовой пояс: UTC + 3


Вы можете начинать темы
Вы можете отвечать на сообщения
Вы не можете редактировать свои сообщения
Вы не можете удалять свои сообщения
Вы не можете голосовать в опросах
Вы не можете прикреплять файлы к сообщениям
Вы можете скачивать файлы