(Classical) Komitas - Folk Songs (Hover- Chamber Choir of Armenia, Sona Hovhannisyan) - 2007, FLAC (image+.cue) lossless


Статистика раздачи [Обновить пиров]
Размер:  269 MB   |    Зарегистрирован:  1 год 1 месяц   |    Скачан:  0 раз

Полного источника не было: 2 часа 12 минут

 
   
 
 
 

[Цитировать]

Komitas - Folk Songs (Hover- Chamber Choir of Armenia, Sona Hovhannisyan)
Жанр: Classical
Год издания диска: 2007
Издатель (лейбл): HOVER
Аудиокодек: FLAC
Тип рипа: image+.cue
Битрейт аудио: lossless
Продолжительность: 55’43
Источник: собственный рип
Наличие сканов в содержимом раздачи: да
Треклист:
1. Aysor ton e tsnndyan (Today is the feast of the nativity) (3:46)
2. Surb surb (Sanctus) (2:37)
3. Havik (The bird) (4:02)
4. Ter, vor i mej lerins aghberatsutser (Lord, who made the spring run from the ... (3:17)
5. Tsov kentsaghuys hanapaz zis alekotse (The sea of life always tosses me about) (4:11)
6. Bazmutyunk hreshtakats (The multitude of angels) (3:32)
7. Ter voghormya (Miserere) (1:37)
8. Janaparh (The way) (1:49)
9. Hognutyun mez zhamanya (Mighty Lord, reach us with your help) (2:26)
10. Harevelits (From the east) (2:16)
11. Ov zarmanali (O amazing mystery) (2:08)
12. Aysor dzaynn hayrakan (This day the voice of the father resounded from the he... (1:12)
13. Hishestsuk i gisheri (May we remember your name in the night) (2:34)
14. Govya Yerusaghem, zTer (Praise the Lord, o Jerusalem) (1:49)
15. Astvatsatsin yerknayin (Mother of God, heavenly gate) (0:52)
16. Siro ko hur (The fire of your love) (1:11)
17. Votnlvayi yerger (Hymns for the washing of feet, on holy thursday) (6:26)
18. Ari Ter (Rise up, Lord) (3:46)
19. Urakh ler (Rejoice) (1:46)
20. Khorhurd mets (O great mystery) (3:04)
21. Norahrash psakavor (Wondrous Crownbearer) (1:22)
22. Azgayin orhnerg (Hymn of national blessing) (2:17)
23. Hayr mer (Lord's prayer) (2:16)
24. Ej Miatsinn i Hore (The only begotten of the father descended) (1:38)
Исполнители:
'Hover' Chamber Choir of Armenia,
Sona Hovhannisyan - Conductor

LOG EAC:

Exact Audio Copy V0.99 prebeta 4 from 23. January 2008
EAC extraction logfile from 8. April 2010, 22:24
Hovhannisyan S., Chamber Choir of Armenia / Hover. Komitas - Folk Songs
Used drive : ATAPI DVD A DH20A4P Adapter: 2 ID: 1
Read mode : Secure
Utilize accurate stream : Yes
Defeat audio cache : Yes
Make use of C2 pointers : No
Read offset correction : 6
Overread into Lead-In and Lead-Out : No
Fill up missing offset samples with silence : Yes
Delete leading and trailing silent blocks : No
Null samples used in CRC calculations : Yes
Used interface : Installed external ASPI interface
Used output format : User Defined Encoder
Selected bitrate : 768 kBit/s
Quality : High
Add ID3 tag : No
Command line compressor : C:\Program Files\Exact Audio Copy\Flac\flac.exe
Additional command line options : -6 -V -T "ARTIST=%a" -T "TITLE=%t" -T "ALBUM=%g" -T "DATE=%y" -T "TRACKNUMBER=%n" -T "GENRE=%m" -T "COMMENT=%e" %s -o %d
TOC of the extracted CD
Track | Start | Length | Start sector | End sector
---------------------------------------------------------
1 | 0:00.00 | 2:16.26 | 0 | 10225
2 | 2:16.26 | 2:04.43 | 10226 | 19568
3 | 4:20.69 | 1:35.18 | 19569 | 26711
4 | 5:56.12 | 2:50.62 | 26712 | 39523
5 | 8:46.74 | 2:23.00 | 39524 | 50248
6 | 11:09.74 | 2:34.37 | 50249 | 61835
7 | 13:44.36 | 0:44.63 | 61836 | 65198
8 | 14:29.24 | 2:07.53 | 65199 | 74776
9 | 16:37.02 | 3:06.35 | 74777 | 88761
10 | 19:43.37 | 0:42.39 | 88762 | 91950
11 | 20:26.01 | 2:42.30 | 91951 | 104130
12 | 23:08.31 | 2:41.50 | 104131 | 116255
13 | 25:50.06 | 0:56.34 | 116256 | 120489
14 | 26:46.40 | 0:41.74 | 120490 | 123638
15 | 27:28.39 | 0:55.02 | 123639 | 127765
16 | 28:23.41 | 1:25.33 | 127766 | 134173
17 | 29:48.74 | 0:47.28 | 134174 | 137726
18 | 30:36.27 | 0:27.12 | 137727 | 139763
19 | 31:03.39 | 0:30.17 | 139764 | 142030
20 | 31:33.56 | 1:11.42 | 142031 | 147397
21 | 32:45.23 | 1:29.11 | 147398 | 154083
22 | 34:14.34 | 2:25.72 | 154084 | 165030
23 | 36:40.31 | 1:13.36 | 165031 | 170541
24 | 37:53.67 | 2:28.00 | 170542 | 181641
25 | 40:21.67 | 3:55.49 | 181642 | 199315
26 | 44:17.41 | 2:23.67 | 199316 | 210107
27 | 46:41.33 | 2:19.61 | 210108 | 220593
28 | 49:01.19 | 1:21.36 | 220594 | 226704
29 | 50:22.55 | 3:15.25 | 226705 | 241354
30 | 53:38.05 | 2:19.50 | 241355 | 251829
Range status and errors
Selected range
Filename C:\Program Files\Exact Audio Copy\Flac\Hover. Komitas - Folk Songs.wav
Peak level 97.7 %
Range quality 100.0 %
Test CRC CE25B309
Copy CRC CE25B309
Copy OK
No errors occurred
End of status report
mp3
[teatrix.ru].t7965.torrent 
Торрент: Зарегистрирован [ 2015-10-14 02:42 ] · FC27F792B66F2E5B52FE4772A860907435A5AC92

Скачать .torrent

Скачать

12 KB

Статус: проверено
Скачан: 0 раз
Размер: 269 MB
terms.php



Быстрый ответ

Имя:

      
Для отправки сообщений необходимо включить JavaScript
Показать сообщения:    

Текущее время: 04-Дек 15:16

Часовой пояс: UTC + 3


Вы можете начинать темы
Вы можете отвечать на сообщения
Вы не можете редактировать свои сообщения
Вы не можете удалять свои сообщения
Вы не можете голосовать в опросах
Вы не можете прикреплять файлы к сообщениям
Вы можете скачивать файлы