(Classical) Armenian Sacred Music - The Way (Hover- Chamber Choir of Armenia, Sona Hovhannisyan) - 2005, FLAC (image+.cue) lossless


Статистика раздачи [Обновить пиров]
Размер:  227 MB   |    Зарегистрирован:  1 год 1 месяц   |    Скачан:  0 раз

Полного источника не было: Никогда

 
   
 
 
 

[Цитировать]

Armenian Sacred Music - The Way (Hover- Chamber Choir of Armenia, Sona Hovhannisyan)
Жанр: Classical
Год издания диска: 2005
Издатель (лейбл): "VEM" Recording Studio
Аудиокодек: FLAC
Тип рипа: image+.cue
Битрейт аудио: lossless
Продолжительность: 61’54
Источник: собственный рип
Наличие сканов в содержимом раздачи: да
Треклист:
1. Aysor ton e tsnndyan (Today is the feast of the nativity) (3:46)
2. Surb surb (Sanctus) (2:37)
3. Havik (The bird) (4:02)
4. Ter, vor i mej lerins aghberatsutser (Lord, who made the spring run from the ... (3:17)
5. Tsov kentsaghuys hanapaz zis alekotse (The sea of life always tosses me about) (4:11)
6. Bazmutyunk hreshtakats (The multitude of angels) (3:32)
7. Ter voghormya (Miserere) (1:37)
8. Janaparh (The way) (1:49)
9. Hognutyun mez zhamanya (Mighty Lord, reach us with your help) (2:26)
10. Harevelits (From the east) (2:16)
11. Ov zarmanali (O amazing mystery) (2:08)
12. Aysor dzaynn hayrakan (This day the voice of the father resounded from the he... (1:12)
13. Hishestsuk i gisheri (May we remember your name in the night) (2:34)
14. Govya Yerusaghem, zTer (Praise the Lord, o Jerusalem) (1:49)
15. Astvatsatsin yerknayin (Mother of God, heavenly gate) (0:52)
16. Siro ko hur (The fire of your love) (1:11)
17. Votnlvayi yerger (Hymns for the washing of feet, on holy thursday) (6:26)
18. Ari Ter (Rise up, Lord) (3:46)
19. Urakh ler (Rejoice) (1:46)
20. Khorhurd mets (O great mystery) (3:04)
21. Norahrash psakavor (Wondrous Crownbearer) (1:22)
22. Azgayin orhnerg (Hymn of national blessing) (2:17)
23. Hayr mer (Lord's prayer) (2:16)
24. Ej Miatsinn i Hore (The only begotten of the father descended) (1:38)
Исполнители:
'Hover' Chamber Choir of Armenia,
Sona Hovhannisyan - Conductor

LOG EAC:

Exact Audio Copy V0.99 prebeta 4 from 23. January 2008
EAC extraction logfile from 8. April 2010, 21:45
Hovhannisyan S., Chamber Choir of Armenia / Hover. The Way - Armenian Sacred Music
Used drive : ATAPI DVD A DH20A4P Adapter: 2 ID: 1
Read mode : Secure
Utilize accurate stream : Yes
Defeat audio cache : Yes
Make use of C2 pointers : No
Read offset correction : 6
Overread into Lead-In and Lead-Out : No
Fill up missing offset samples with silence : Yes
Delete leading and trailing silent blocks : No
Null samples used in CRC calculations : Yes
Used interface : Installed external ASPI interface
Used output format : User Defined Encoder
Selected bitrate : 768 kBit/s
Quality : High
Add ID3 tag : No
Command line compressor : C:\Program Files\Exact Audio Copy\Flac\flac.exe
Additional command line options : -6 -V -T "ARTIST=%a" -T "TITLE=%t" -T "ALBUM=%g" -T "DATE=%y" -T "TRACKNUMBER=%n" -T "GENRE=%m" -T "COMMENT=%e" %s -o %d
TOC of the extracted CD
Track | Start | Length | Start sector | End sector
---------------------------------------------------------
1 | 0:00.00 | 3:46.50 | 0 | 16999
2 | 3:46.50 | 2:37.44 | 17000 | 28818
3 | 6:24.19 | 4:02.37 | 28819 | 47005
4 | 10:26.56 | 3:17.18 | 47006 | 61798
5 | 13:43.74 | 4:11.36 | 61799 | 80659
6 | 17:55.35 | 3:32.33 | 80660 | 96592
7 | 21:27.68 | 1:37.00 | 96593 | 103867
8 | 23:04.68 | 1:49.66 | 103868 | 112108
9 | 24:54.59 | 2:26.08 | 112109 | 123066
10 | 27:20.67 | 2:16.01 | 123067 | 133267
11 | 29:36.68 | 2:08.08 | 133268 | 142875
12 | 31:45.01 | 1:12.69 | 142876 | 148344
13 | 32:57.70 | 2:34.22 | 148345 | 159916
14 | 35:32.17 | 1:49.39 | 159917 | 168130
15 | 37:21.56 | 0:52.50 | 168131 | 172080
16 | 38:14.31 | 1:11.33 | 172081 | 177438
17 | 39:25.64 | 6:26.45 | 177439 | 206433
18 | 45:52.34 | 3:46.23 | 206434 | 223406
19 | 49:38.57 | 1:46.15 | 223407 | 231371
20 | 51:24.72 | 3:04.30 | 231372 | 245201
21 | 54:29.27 | 1:22.27 | 245202 | 251378
22 | 55:51.54 | 2:17.22 | 251379 | 261675
23 | 58:09.01 | 2:16.47 | 261676 | 271922
24 | 60:25.48 | 1:38.69 | 271923 | 279341
Range status and errors
Selected range
Filename C:\Program Files\Exact Audio Copy\Flac\Hover. The Way - Armenian Sacred Music.wav
Peak level 94.0 %
Range quality 100.0 %
Test CRC C6BB513C
Copy CRC C6BB513C
Copy OK
No errors occurred
End of status report
mp3
[teatrix.ru].t7966.torrent 
Торрент: Зарегистрирован [ 2015-10-14 02:42 ] · EE3C460BCC2A478F69B5A7B318C42C473B3218C1

Скачать .torrent

Скачать

19 KB

Статус: проверено
Скачан: 0 раз
Размер: 227 MB
terms.php



Быстрый ответ

Имя:

      
Для отправки сообщений необходимо включить JavaScript
Показать сообщения:    

Текущее время: 06-Дек 11:12

Часовой пояс: UTC + 3


Вы можете начинать темы
Вы можете отвечать на сообщения
Вы не можете редактировать свои сообщения
Вы не можете удалять свои сообщения
Вы не можете голосовать в опросах
Вы не можете прикреплять файлы к сообщениям
Вы можете скачивать файлы