(Classical) Armenian Sacred Music - De Profundis (Anahit Papayan, Lusine Ghazaryan; Hover- Chamber Choir of Armenia, Sona Hovhannisyan) - 2005, FLAC (image+.cue) lossless


Статистика раздачи [Обновить пиров]
Размер:  260 MB   |    Зарегистрирован:  1 год 1 месяц   |    Скачан:  0 раз

Полного источника не было: Никогда

 
   
 
 
 

[Цитировать]

Armenian Sacred Music - De Profundis (Anahit Papayan, Lusine Ghazaryan; Hover- Chamber Choir of Armenia, Sona Hovhannisyan)
Жанр: Classical
Год издания диска: 2005
Издатель (лейбл): "VEM" Recording Studio
Аудиокодек: FLAC
Тип рипа: image+.cue
Битрейт аудио: lossless
Продолжительность: 65’50
Источник: собственный рип
Наличие сканов в содержимом раздачи: да
Треклист:
1. Bazum en ko gtutyunkd (Your mercies are manifold) (1:24)
2. Megha kez, Ter(I have sinned against you, Lord) (1:50)
3. Voghormya indz, Astvats (Have mercy on me, God) (1:40)
4. Khorurd khorin (Profound mystery) (3:04)
5. Vor vasn mero prkutyan (Who for our salvation) (1:39)
6. Vor zamenazor zorutyund ko tsutser (Who showed your almighty strength) (1:28)
7. Nahatak bari (Blissful martyr) (2:06)
8. Barekhosutyamb Mor ko yev Kusi (Through the intercession of your Virg... (3:50)
9. Ahegh dzayns (Awesome voice) (1:59)
10. Havun, havun (Bird, bird) (3:22)
11. Havik (The Bird) (2:57)
12. Marmin terunakan (The body of the Lord) (1:02)
13. Achken tsov (Eyes like the sea) (7:11)
14. Salyn ayn ijaner (The chariot descended) (5:51)
15. Gohar vardn (The gem rose) (4:01)
16. Vordi Astutso (Son of God) (0:48)
17. Enkal kaghtsrutyamb (Accept with sweetness) (5:52)
18. Park Kristosi (Glory to Christ) (2:37)
19. Aravot luso (Morning of light) (3:08)
20. Kristos pataragyal (Christ is sacrificed) (2:35)
21. Steghtsogh mankants (Creator of children) (2:20)
22. Nor tsaghik (New flower) (2:36)
23. Bats mez, Ter (Open for us, Lord) (2:30)
Исполнители:
Anahit Papayan - Soprano, (1,2,3,6,7,10,13,17,18,19,22,23)
Lusine Ghazaryan - Soprano,(1,2,3,5,9,11,14,15,17,18,21)
'Hover' Chamber Choir of Armenia, (4,8,12,16,20)
Sona Hovhannisyan - Conductor

LOG EAC:

Exact Audio Copy V0.99 prebeta 4 from 23. January 2008
EAC extraction logfile from 26. April 2010, 21:21
Anahit Papayan, Hovhannisyan S., Chamber Choir of Armenia / De Profundis
Used drive : ATAPI DVD A DH20A4P Adapter: 2 ID: 1
Read mode : Secure
Utilize accurate stream : Yes
Defeat audio cache : Yes
Make use of C2 pointers : No
Read offset correction : 6
Overread into Lead-In and Lead-Out : No
Fill up missing offset samples with silence : Yes
Delete leading and trailing silent blocks : No
Null samples used in CRC calculations : Yes
Used interface : Installed external ASPI interface
Used output format : User Defined Encoder
Selected bitrate : 768 kBit/s
Quality : High
Add ID3 tag : No
Command line compressor : C:\Program Files\Exact Audio Copy\Flac\flac.exe
Additional command line options : -6 -V -T "ARTIST=%a" -T "TITLE=%t" -T "ALBUM=%g" -T "DATE=%y" -T "TRACKNUMBER=%n" -T "GENRE=%m" -T "COMMENT=%e" %s -o %d
TOC of the extracted CD
Track | Start | Length | Start sector | End sector
---------------------------------------------------------
1 | 0:00.00 | 1:24.20 | 0 | 6319
2 | 1:24.20 | 1:50.14 | 6320 | 14583
3 | 3:14.34 | 1:40.37 | 14584 | 22120
4 | 4:54.71 | 3:04.55 | 22121 | 35975
5 | 7:59.51 | 1:39.07 | 35976 | 43407
6 | 9:38.58 | 1:28.12 | 43408 | 50019
7 | 11:06.70 | 2:06.70 | 50020 | 59539
8 | 13:13.65 | 3:50.36 | 59540 | 76825
9 | 17:04.26 | 1:59.60 | 76826 | 85810
10 | 19:04.11 | 3:22.22 | 85811 | 100982
11 | 22:26.33 | 2:57.25 | 100983 | 114282
12 | 25:23.58 | 1:02.37 | 114283 | 118969
13 | 26:26.20 | 7:11.72 | 118970 | 151366
14 | 33:38.17 | 5:51.08 | 151367 | 177699
15 | 39:29.25 | 4:01.70 | 177700 | 195844
16 | 43:31.20 | 0:48.69 | 195845 | 199513
17 | 44:20.14 | 5:52.72 | 199514 | 225985
18 | 50:13.11 | 2:37.57 | 225986 | 237817
19 | 52:50.68 | 3:08.05 | 237818 | 251922
20 | 55:58.73 | 2:35.46 | 251923 | 263593
21 | 58:34.44 | 2:20.00 | 263594 | 274093
22 | 60:54.44 | 2:36.04 | 274094 | 285797
23 | 63:30.48 | 2:30.49 | 285798 | 297096
Range status and errors
Selected range
Filename C:\Program Files\Exact Audio Copy\Flac\Anahit Papayan, Hover - De Profundis.wav
Peak level 99.9 %
Range quality 100.0 %
Test CRC 22A72D28
Copy CRC 22A72D28
Copy OK
No errors occurred
AccurateRip summary
Track 1 not present in database
Track 2 not present in database
Track 3 not present in database
Track 4 not present in database
Track 5 not present in database
Track 6 not present in database
Track 7 not present in database
Track 8 not present in database
Track 9 not present in database
Track 10 not present in database
Track 11 not present in database
Track 12 not present in database
Track 13 not present in database
Track 14 not present in database
Track 15 not present in database
Track 16 not present in database
Track 17 not present in database
Track 18 not present in database
Track 19 not present in database
Track 20 not present in database
Track 21 not present in database
Track 22 not present in database
Track 23 not present in database
None of the tracks are present in the AccurateRip database
End of status report
mp3
[teatrix.ru].t7967.torrent 
Торрент: Зарегистрирован [ 2015-10-14 02:42 ] · EF5EA1CAF49CEF118F02A8DD70976FBBF3241C60

Скачать .torrent

Скачать

12 KB

Статус: проверено
Скачан: 0 раз
Размер: 260 MB
terms.php



Быстрый ответ

Имя:

      
Для отправки сообщений необходимо включить JavaScript
Показать сообщения:    

Текущее время: 03-Дек 22:46

Часовой пояс: UTC + 3


Вы можете начинать темы
Вы можете отвечать на сообщения
Вы не можете редактировать свои сообщения
Вы не можете удалять свои сообщения
Вы не можете голосовать в опросах
Вы не можете прикреплять файлы к сообщениям
Вы можете скачивать файлы