(Classical, sacred) Giovanni Legrenzi - Missa lauretana quinque vocibus - Oficina Musicum, Riccardo Favero - 2012, FLAC (image+.cue) lossless


Статистика раздачи [Обновить пиров]
Размер:  279 MB   |    Зарегистрирован:  1 год 1 месяц   |    Скачан:  0 раз

Полного источника не было: Никогда

 
   
 
 
 

[Цитировать]

Giovanni Legrenzi - Missa lauretana quinque vocibus - Oficina Musicum, Riccardo Favero
Жанр: Classical, sacred
Страна-производитель диска: Italy
Год издания диска: 2012
Издатель (лейбл): Dynamic
Номер по каталогу: CDS 710
Дата записи: 2009
Аудиокодек: FLAC
Тип рипа: image+.cue
Битрейт аудио: lossless
Продолжительность: 58:42
Источник: собственный рип
Наличие сканов в содержимом раздачи: да
Треклист:
Giovanni Legrenzi (1626-1690)
Missa lauretana quinque vocibus
[1]-[3] Sonata 'La Spilimberga'
[4] Introitus: Terribilis est locus iste
[5] Kyrie
[6] Gloria
[7] Graduale: Unam petii
[8] Alleluia
[9] Credo
[10] Offertorium: Domine Deus
[11] Sanctus
[12] Agnus Dei
[13] Communio: Domus mea
[14]-[16] Sonata 'La Querini'
[17]-[19] Congratulamini Filiae Syon
[20] Improvvisazione
[21] Alma Redemptoris Mater
[22] Improvvisazione
[23]-[26] Hodie collaetantur coeli
Исполнители:
Oficina Musicum
Riccardo Favero

Лог создания рипа

Exact Audio Copy V1.0 beta 3 from 29. August 2011
EAC extraction logfile from 4. February 2014, 18:09
Oficina Musicum, Riccardo Favero / Legrenzi - Missa lauretana quinque vocibus
Used drive : HL-DT-STDVDRRW GWA-4164B Adapter: 5 ID: 0
Read mode : SecureUtilize accurate stream : YesDefeat audio cache : YesMake use of C2 pointers : No
Read offset correction : 102Overread into Lead-In and Lead-Out : NoFill up missing offset samples with silence : YesDelete leading and trailing silent blocks : NoNull samples used in CRC calculations : YesUsed interface : Native Win32 interface for Win NT & 2000
Used output format : User Defined EncoderSelected bitrate : 896 kBit/sQuality : HighAdd ID3 tag : NoCommand line compressor : C:\Program Files\Exact Audio Copy\FLAC\FLAC.EXEAdditional command line options : -V -8 %source%
TOC of the extracted CD
Track | Start | Length | Start sector | End sector --------------------------------------------------------- 1 | 0:00.00 | 3:53.55 | 0 | 17529 2 | 3:53.55 | 0:21.28 | 17530 | 19132 3 | 4:15.08 | 2:22.51 | 19133 | 29833 4 | 6:37.59 | 2:34.74 | 29834 | 41457 5 | 9:12.58 | 2:34.55 | 41458 | 53062 6 | 11:47.38 | 4:30.61 | 53063 | 73373 7 | 16:18.24 | 2:19.07 | 73374 | 83805 8 | 18:37.31 | 1:13.32 | 83806 | 89312 9 | 19:50.63 | 7:32.53 | 89313 | 123265 10 | 27:23.41 | 1:43.38 | 123266 | 131028 11 | 29:07.04 | 3:21.68 | 131029 | 146171 12 | 32:28.72 | 2:10.09 | 146172 | 155930 13 | 34:39.06 | 1:30.57 | 155931 | 162737 14 | 36:09.63 | 2:28.04 | 162738 | 173841 15 | 38:37.67 | 1:26.65 | 173842 | 180356 16 | 40:04.57 | 0:27.26 | 180357 | 182407 17 | 40:32.08 | 1:08.10 | 182408 | 187517 18 | 41:40.18 | 1:54.17 | 187518 | 196084 19 | 43:34.35 | 2:43.37 | 196085 | 208346 20 | 46:17.72 | 1:47.43 | 208347 | 216414 21 | 48:05.40 | 3:06.42 | 216415 | 230406 22 | 51:12.07 | 2:13.08 | 230407 | 240389 23 | 53:25.15 | 0:41.70 | 240390 | 243534 24 | 54:07.10 | 2:05.65 | 243535 | 252974 25 | 56:13.00 | 1:22.04 | 252975 | 259128 26 | 57:35.04 | 1:04.72 | 259129 | 264000
Range status and errors
Selected range
Filename D:\temp\Music\Legrenzi - Missa lauretana quinque vocibus\Legrenzi - Missa lauretana quinque vocibus.wav
Peak level 97.8 % Extraction speed 2.8 X Range quality 100.0 % Test CRC 356CE7C3 Copy CRC 356CE7C3 Copy OK
No errors occurred
AccurateRip summary
Track 1 accurately ripped (confidence 1) [6997D728] (AR v2)Track 2 accurately ripped (confidence 1) [25A9A153] (AR v2)Track 3 accurately ripped (confidence 1) [88E63EA8] (AR v2)Track 4 accurately ripped (confidence 1) [B4DC81DE] (AR v2)Track 5 accurately ripped (confidence 1) [207EC7FC] (AR v2)Track 6 accurately ripped (confidence 1) [F27A3E9F] (AR v2)Track 7 accurately ripped (confidence 1) [A5A5C3DA] (AR v2)Track 8 accurately ripped (confidence 1) [EA4DE74C] (AR v2)Track 9 accurately ripped (confidence 1) [53BBE36A] (AR v2)Track 10 accurately ripped (confidence 1) [4652C609] (AR v2)Track 11 accurately ripped (confidence 1) [F810BE05] (AR v2)Track 12 accurately ripped (confidence 1) [BECEBA8F] (AR v2)Track 13 accurately ripped (confidence 1) [03830E87] (AR v2)Track 14 accurately ripped (confidence 1) [BF667B45] (AR v2)Track 15 accurately ripped (confidence 1) [2EA1D73B] (AR v2)Track 16 accurately ripped (confidence 1) [FD5E7D28] (AR v2)Track 17 accurately ripped (confidence 1) [0E44E007] (AR v2)Track 18 accurately ripped (confidence 1) [28D8FFE0] (AR v2)Track 19 accurately ripped (confidence 1) [5DB50363] (AR v2)Track 20 accurately ripped (confidence 1) [3548B84C] (AR v2)Track 21 accurately ripped (confidence 1) [03780D1B] (AR v2)Track 22 accurately ripped (confidence 1) [54129AF6] (AR v2)Track 23 accurately ripped (confidence 1) [DD607FFE] (AR v2)Track 24 accurately ripped (confidence 1) [86F5543F] (AR v2)Track 25 accurately ripped (confidence 1) [34201A61] (AR v2)Track 26 accurately ripped (confidence 1) [EBC625CF] (AR v2)
All tracks accurately ripped
End of status report
==== Log checksum 93011F5E96BB303133F7D932E4FD9961C7916604F31895F981F09B2C80A2AA16 ====
[teatrix.ru].t7968.torrent 
Торрент: Зарегистрирован [ 2015-10-14 02:42 ] · 2EE4711BB22C9671A784ABBE8A400A04DE9A9E5E

Скачать .torrent

Скачать

24 KB

Статус: проверено
Скачан: 0 раз
Размер: 279 MB
terms.php



Быстрый ответ

Имя:

      
Для отправки сообщений необходимо включить JavaScript
Показать сообщения:    

Текущее время: 06-Дек 20:53

Часовой пояс: UTC + 3


Вы можете начинать темы
Вы можете отвечать на сообщения
Вы не можете редактировать свои сообщения
Вы не можете удалять свои сообщения
Вы не можете голосовать в опросах
Вы не можете прикреплять файлы к сообщениям
Вы можете скачивать файлы