(Classical/Choral) John Tavener - The Veil of the Temple (Patricia Rosario / Stephen Layton) - 2014, FLAC (image+.cue) lossless


Статистика раздачи [Обновить пиров]
Размер:  620 MB   |    Зарегистрирован:  1 год 1 месяц   |    Скачан:  0 раз

Полного источника не было: Никогда

 
   
 
 
 

[Цитировать]

John Tavener - The Veil of the Temple
Жанр: Classical/Choral
Страна-производитель диска: EU
Год издания диска: 2014
Издатель (лейбл): Signum Classics
Номер по каталогу: SIGCD367
Дата записи: 27-28.VI & I&4-5.VII
Аудиокодек: FLAC
Тип рипа: image+.cue
Битрейт аудио: lossless
Продолжительность: 2:28'14"
Источник: собственный рип
Наличие сканов в содержимом раздачи: да
Треклист:
CD1:
Cycle I
01. Mystical Love Song of the Sufis
02. Primordial Call
Cycle II
03. Primordial Call
04. God's Creation
05. Outside the Gates of Paradise
06. Our Father
07. Holy Mary
08. Alleluia Theo Erastos
09. Gospel of St John
10. Thrice-Holy Hymn - Resurrection
11. Beatitudes of St. Isaac the Syrian
Cycle III
12. Primordial Call
13. Psalm of Creation
14. O Blessed Paradise, Pray for Me
Cycle IV
15. Primordial Call
16. Mystery of the Nothingness of God
Cycle V
17. Primordial Call
18. You Mantle Yoursel in Light
19. Jesus Prayer
20. The Lord's Prayer
Cycle VI
21. Primordial Call
22. What God is We do not Know
23. God of Strenth
24. Kyrie Eleison - Chant
25. Te Re Rem - Ecstatic Chant
26. Jesus Having Risen from the Tomb
CD2:
Cycle VII
01. Apocalyptic Primordial Call
02. Absolved in the Mirror
03. Jesus Prayer
04. Hesychast Meditation
05. Mary Theotokos
06. Hail, Veil of the Temple
07. Mother of God
08. Alleluia
09. Gospel of St. John
Cycle VIII
10. Marantha
11. Awake Thou That Sleepest
12. Into Beauty
13. Rending of the Veil of the Temple
14. Knights Templar in the Temple Church
15. Light of Christ
16. Cosmic Rising
17. New Jerusalem
18. Shantih

Исполнители:
Patricia Rosario, soprano
The Choir of the Temple Church
The Holst Singers
English Chamber Orchestra
Stephen Layton
-

Лог создания рипа - CD1

Exact Audio Copy V1.0 beta 1 from 15. November 2010
EAC extraction logfile from 19. March 2014, 21:11
John Tavener / The Veil of the Temple (CD1)
Used drive : Optiarc DVD RW AD-7203A Adapter: 4 ID: 1
Read mode : SecureUtilize accurate stream : YesDefeat audio cache : YesMake use of C2 pointers : No
Read offset correction : 48Overread into Lead-In and Lead-Out : NoFill up missing offset samples with silence : YesDelete leading and trailing silent blocks : NoNull samples used in CRC calculations : YesUsed interface : Native Win32 interface for Win NT & 2000
Used output format : User Defined EncoderSelected bitrate : 128 kBit/sQuality : HighAdd ID3 tag : NoCommand line compressor : C:\Program Files\FLAC\flac.exeAdditional command line options : -T "COMMENT=Ripped by GFox" -8 -V %s
TOC of the extracted CD
Track | Start | Length | Start sector | End sector --------------------------------------------------------- 1 | 0:00.00 | 5:05.71 | 0 | 22945 2 | 5:05.71 | 2:41.61 | 22946 | 35081 3 | 7:47.57 | 0:31.05 | 35082 | 37411 4 | 8:18.62 | 5:39.68 | 37412 | 62904 5 | 13:58.55 | 2:51.17 | 62905 | 75746 6 | 16:49.72 | 2:58.19 | 75747 | 89115 7 | 19:48.16 | 3:00.01 | 89116 | 102616 8 | 22:48.17 | 1:44.11 | 102617 | 110427 9 | 24:32.28 | 4:22.72 | 110428 | 130149 10 | 28:55.25 | 2:58.57 | 130150 | 143556 11 | 31:54.07 | 4:37.14 | 143557 | 164345 12 | 36:31.21 | 1:18.11 | 164346 | 170206 13 | 37:49.32 | 1:49.06 | 170207 | 178387 14 | 39:38.38 | 3:13.23 | 178388 | 192885 15 | 42:51.61 | 1:54.69 | 192886 | 201504 16 | 44:46.55 | 2:15.03 | 201505 | 211632 17 | 47:01.58 | 1:51.08 | 211633 | 219965 18 | 48:52.66 | 3:41.70 | 219966 | 236610 19 | 52:34.61 | 1:13.44 | 236611 | 242129 20 | 53:48.30 | 6:58.14 | 242130 | 273493 21 | 60:46.44 | 2:07.36 | 273494 | 283054 22 | 62:54.05 | 2:34.06 | 283055 | 294610 23 | 65:28.11 | 2:45.19 | 294611 | 307004 24 | 68:13.30 | 2:17.37 | 307005 | 317316 25 | 70:30.67 | 3:30.60 | 317317 | 333126 26 | 74:01.52 | 2:21.69 | 333127 | 343770
Range status and errors
Selected range
Filename D:\EAC\John Tavener - The Veil of the Temple (CD1).wav
Peak level 97.7 % Extraction speed 0.1 X Range quality 100.0 % Test CRC 97CC55AC Copy CRC 97CC55AC Copy OK
No errors occurred
AccurateRip summary
Track 1 cannot be verified as accurate (confidence 10) [1D98B013], AccurateRip returned [65331E29]Track 2 cannot be verified as accurate (confidence 10) [13F176C2], AccurateRip returned [8BBD57C9]Track 3 cannot be verified as accurate (confidence 10) [0715FFD2], AccurateRip returned [1C128ED4]Track 4 cannot be verified as accurate (confidence 10) [6A234BDD], AccurateRip returned [8DDD53A1]Track 5 cannot be verified as accurate (confidence 10) [EE6B2E48], AccurateRip returned [2DC32DC0]Track 6 cannot be verified as accurate (confidence 10) [49E770E5], AccurateRip returned [552B2BAC]Track 7 cannot be verified as accurate (confidence 10) [5AED2B0C], AccurateRip returned [C3057B6E]Track 8 cannot be verified as accurate (confidence 10) [8538702D], AccurateRip returned [AB2B7309]Track 9 cannot be verified as accurate (confidence 10) [5DE9E8B7], AccurateRip returned [B8C5F1A8]Track 10 cannot be verified as accurate (confidence 10) [D4D87F94], AccurateRip returned [1FE923D4]Track 11 cannot be verified as accurate (confidence 10) [ECD67AA6], AccurateRip returned [0DD656AA]Track 12 cannot be verified as accurate (confidence 10) [B472DD3B], AccurateRip returned [917E05F4]Track 13 cannot be verified as accurate (confidence 10) [E7B5DA47], AccurateRip returned [F24EE292]Track 14 cannot be verified as accurate (confidence 10) [3E2876A4], AccurateRip returned [8E98C695]Track 15 cannot be verified as accurate (confidence 10) [A0E28F57], AccurateRip returned [F67E4510]Track 16 cannot be verified as accurate (confidence 10) [3D6516DE], AccurateRip returned [475CF946]Track 17 cannot be verified as accurate (confidence 10) [398277F3], AccurateRip returned [772AF026]Track 18 cannot be verified as accurate (confidence 10) [2160FCE1], AccurateRip returned [6CD703C2]Track 19 cannot be verified as accurate (confidence 10) [678830D9], AccurateRip returned [229A24B5]Track 20 cannot be verified as accurate (confidence 10) [FAC0E9AA], AccurateRip returned [40ABE285]Track 21 cannot be verified as accurate (confidence 10) [AA7AC0D8], AccurateRip returned [BA582ECB]Track 22 cannot be verified as accurate (confidence 10) [652FC72E], AccurateRip returned [9BB70B15]Track 23 cannot be verified as accurate (confidence 10) [C3105B94], AccurateRip returned [CF96DDD2]Track 24 cannot be verified as accurate (confidence 10) [5E0F2AC7], AccurateRip returned [9C8189C7]Track 25 cannot be verified as accurate (confidence 10) [C4B9DA96], AccurateRip returned [A2796864]Track 26 cannot be verified as accurate (confidence 10) [89C9011E], AccurateRip returned [E331C27D]
No tracks could be verified as accurateYou may have a different pressing from the one(s) in the database
End of status report
==== Log checksum 90AB9CBFC91FD9079B030B90446F8145413A8E705869790C333208F1187AD019 ====

Лог создания рипа - CD2

Exact Audio Copy V1.0 beta 1 from 15. November 2010
EAC extraction logfile from 20. March 2014, 0:53
John Taverner / The Veil of the Temple (CD2)
Used drive : Optiarc DVD RW AD-7203A Adapter: 4 ID: 1
Read mode : SecureUtilize accurate stream : YesDefeat audio cache : YesMake use of C2 pointers : No
Read offset correction : 48Overread into Lead-In and Lead-Out : NoFill up missing offset samples with silence : YesDelete leading and trailing silent blocks : NoNull samples used in CRC calculations : YesUsed interface : Native Win32 interface for Win NT & 2000
Used output format : User Defined EncoderSelected bitrate : 128 kBit/sQuality : HighAdd ID3 tag : NoCommand line compressor : C:\Program Files\FLAC\flac.exeAdditional command line options : -T "COMMENT=Ripped by GFox" -8 -V %s
TOC of the extracted CD
Track | Start | Length | Start sector | End sector --------------------------------------------------------- 1 | 0:00.00 | 1:25.70 | 0 | 6444 2 | 1:25.70 | 2:05.09 | 6445 | 15828 3 | 3:31.04 | 1:36.65 | 15829 | 23093 4 | 5:07.69 | 4:17.10 | 23094 | 42378 5 | 9:25.04 | 2:56.68 | 42379 | 55646 6 | 12:21.72 | 1:21.04 | 55647 | 61725 7 | 13:43.01 | 5:06.11 | 61726 | 84686 8 | 18:49.12 | 4:58.23 | 84687 | 107059 9 | 23:47.35 | 13:47.30 | 107060 | 169114 10 | 37:34.65 | 2:50.64 | 169115 | 181928 11 | 40:25.54 | 2:11.57 | 181929 | 191810 12 | 42:37.36 | 1:10.55 | 191811 | 197115 13 | 43:48.16 | 5:40.26 | 197116 | 222641 14 | 49:28.42 | 4:18.14 | 222642 | 242005 15 | 53:46.56 | 4:31.28 | 242006 | 262358 16 | 58:18.09 | 4:13.28 | 262359 | 281361 17 | 62:31.37 | 5:55.26 | 281362 | 308012 18 | 68:26.63 | 3:23.64 | 308013 | 323301
Range status and errors
Selected range
Filename D:\EAC\John Taverner - The Veil of the Temple (CD2).wav
Peak level 98.0 % Extraction speed 0.1 X Range quality 99.9 % Test CRC 784AC1CF Copy CRC 784AC1CF Copy OK
No errors occurred
AccurateRip summary
Track 1 cannot be verified as accurate (confidence 8) [D65112B2], AccurateRip returned [18DCCDCA]Track 2 cannot be verified as accurate (confidence 8) [84A38540], AccurateRip returned [EBCC8E78]Track 3 cannot be verified as accurate (confidence 8) [8EB4A042], AccurateRip returned [E1078C8E]Track 4 cannot be verified as accurate (confidence 8) [16BA4F0A], AccurateRip returned [37C35211]Track 5 cannot be verified as accurate (confidence 8) [72586AEA], AccurateRip returned [87045BE8]Track 6 cannot be verified as accurate (confidence 8) [79D0EBD2], AccurateRip returned [DEB70C37]Track 7 cannot be verified as accurate (confidence 8) [36351F43], AccurateRip returned [EE534A2D]Track 8 cannot be verified as accurate (confidence 8) [B66142B4], AccurateRip returned [A8FD2285]Track 9 cannot be verified as accurate (confidence 8) [7AB93246], AccurateRip returned [B36C49FC]Track 10 cannot be verified as accurate (confidence 8) [042AEE48], AccurateRip returned [11E4B85D]Track 11 cannot be verified as accurate (confidence 8) [C8979C2A], AccurateRip returned [A22E8F3F]Track 12 cannot be verified as accurate (confidence 8) [E91D41D6], AccurateRip returned [FAD6A11D]Track 13 cannot be verified as accurate (confidence 8) [438155D7], AccurateRip returned [9D3F965E]Track 14 cannot be verified as accurate (confidence 8) [40D7C8AA], AccurateRip returned [4EB423BF]Track 15 cannot be verified as accurate (confidence 8) [69AB578D], AccurateRip returned [10B83317]Track 16 cannot be verified as accurate (confidence 8) [3F590BE2], AccurateRip returned [8D961FA7]Track 17 cannot be verified as accurate (confidence 8) [AAD9F72C], AccurateRip returned [037CC2B6]Track 18 cannot be verified as accurate (confidence 8) [66942E64], AccurateRip returned [F237FEF2]
No tracks could be verified as accurateYou may have a different pressing from the one(s) in the database
End of status report
==== Log checksum 79E9F5FC7AE50A1D12AC141C0868F91D717867FC4CD7E13248F866E35C5BF3D9 ====
-Доп. информация: The Veil of the Temple - одно из наиболее значительных и масштабных сочинений сэра Джона Тавенера, священные гимны ордена Тамплиеров, посвящено памяти отца композитора.-
[teatrix.ru].t7969.torrent 
Торрент: Зарегистрирован [ 2015-10-14 02:42 ] · 321A37EDA6AB6658E2A8426AEA4A0368AD1DDC09

Скачать .torrent

Скачать

13 KB

Статус: проверено
Скачан: 0 раз
Размер: 620 MB
terms.php



Быстрый ответ

Имя:

      
Для отправки сообщений необходимо включить JavaScript
Показать сообщения:    

Текущее время: 08-Дек 03:12

Часовой пояс: UTC + 3


Вы можете начинать темы
Вы можете отвечать на сообщения
Вы не можете редактировать свои сообщения
Вы не можете удалять свои сообщения
Вы не можете голосовать в опросах
Вы не можете прикреплять файлы к сообщениям
Вы можете скачивать файлы