(Classical, sacred) Miserere - A sequence of music for Lent, St Joseph, and the Annunciation: Malcolm, Byrd, Palestrina, Croce, Bevan, Mawby, Parsons, Guerrero - The Choir of Westminster Cathedral, Martin Baker - 2013, FLAC (image+.cue) lossless


Статистика раздачи [Обновить пиров]
Размер:  325 MB   |    Зарегистрирован:  1 год 1 месяц   |    Скачан:  0 раз

Полного источника не было: Никогда

 
   
 
 
 

[Цитировать]

Miserere - A sequence of music for Lent, St Joseph, and the Annunciation: Malcolm, Byrd, Palestrina, Croce, Bevan, Mawby, Parsons, Guerrero - The Choir of Westminster Cathedral, Martin Baker
Жанр: Classical, sacred
Страна-производитель диска: UK
Год издания диска: 2013
Издатель (лейбл): Hyperion
Номер по каталогу: CDA67938
Дата записи: 2011
Аудиокодек: FLAC
Тип рипа: image+.cue
Битрейт аудио: lossless
Продолжительность: 79:15
Источник: собственный рип
Наличие сканов в содержимом раздачи: да
Треклист:
[1] Plainsong Attende, Domine
[2] George Malcolm (1917-1997): Miserere mei, Deus
[3] William Byrd (1539/40-1623): Emendemus in melius
[4] Giovanni Pierluigi da Palestrina (1525/6-1594): Missa Emendemus in melius - 1. Kyrie
[5] Giovanni Pierluigi da Palestrina: Missa Emendemus in melius - 5. Agnus Dei
[6] George Malcolm: Scapulis suis
[7] Plainsong: Audi, benigne conditor
[8] Giovanni Croce (1557-1609): In spiritu humilitatis
[9] Magnificat antiphon: Evigila super nos
[10] David Bevan (b.1951): Magnificat quarti toni
[11] Antiphon repeat: Evigila super nos
[12] Colin Mawby (b.1936): Iustus ut palma
[13] Plainsong: Mass IX, 'Cum iubilo' - 1. Kyrie
[14] Plainsong: Mass IX, 'Cum iubilo' - 2. Gloria
[15] George Malcolm: Veritas mea
[16] Plainsong: Credo IV
[17] Robert Parsons (c.1535-1572): Ave Maria
[18] Plainsong: Mass IX, 'Cum iubilo' - 3. Sanctus & Benedictus
[19] Plainsong: Mass IX, 'Cum iubilo' - 4. Agnus Dei
[20] Francisco Guerrero (1528-1599): Ave virgo sanctissima
[21] Thomas Tallis (c.1505-1585): Te lucis ante terminum I
[22] Nunc dimittis antiphon: Salva nos, Domine
[23] George Malcolm: Nunc dimittis tertii toni
[24] Antiphon repeat: Salva nos, Domine (Repeat)
Исполнители:
The Choir of Westminster Cathedral
Martin Baker

Лог создания рипа

Exact Audio Copy V1.0 beta 3 from 29. August 2011
EAC extraction logfile from 16. March 2014, 21:14
Westminster Cathedral Choir, Martin Baker / Miserere - A Sequence of Music for Lent, St Joseph, & the Annunciation
Used drive : HL-DT-STDVDRAM GSA-4083N Adapter: 1 ID: 0
Read mode : SecureUtilize accurate stream : YesDefeat audio cache : YesMake use of C2 pointers : No
Read offset correction : 667Overread into Lead-In and Lead-Out : NoFill up missing offset samples with silence : YesDelete leading and trailing silent blocks : NoNull samples used in CRC calculations : YesUsed interface : Native Win32 interface for Win NT & 2000
Used output format : User Defined EncoderSelected bitrate : 896 kBit/sQuality : HighAdd ID3 tag : NoCommand line compressor : C:\Program Files\Exact Audio Copy\Flac\flac.exeAdditional command line options : -V -8 %source%
TOC of the extracted CD
Track | Start | Length | Start sector | End sector --------------------------------------------------------- 1 | 0:00.00 | 3:23.48 | 0 | 15272 2 | 3:23.48 | 8:43.21 | 15273 | 54518 3 | 12:06.69 | 4:30.74 | 54519 | 74842 4 | 16:37.68 | 2:38.41 | 74843 | 86733 5 | 19:16.34 | 5:04.57 | 86734 | 109590 6 | 24:21.16 | 4:11.17 | 109591 | 128432 7 | 28:32.33 | 2:39.31 | 128433 | 140388 8 | 31:11.64 | 5:35.34 | 140389 | 165547 9 | 36:47.23 | 0:46.62 | 165548 | 169059 10 | 37:34.10 | 4:45.42 | 169060 | 190476 11 | 42:19.52 | 0:53.65 | 190477 | 194516 12 | 43:13.42 | 4:05.63 | 194517 | 212954 13 | 47:19.30 | 2:04.51 | 212955 | 222305 14 | 49:24.06 | 3:21.24 | 222306 | 237404 15 | 52:45.30 | 3:13.51 | 237405 | 251930 16 | 55:59.06 | 4:36.63 | 251931 | 272693 17 | 60:35.69 | 5:34.65 | 272694 | 297808 18 | 66:10.59 | 1:39.22 | 297809 | 305255 19 | 67:50.06 | 1:31.11 | 305256 | 312091 20 | 69:21.17 | 4:58.63 | 312092 | 334504 21 | 74:20.05 | 2:06.62 | 334505 | 344016 22 | 76:26.67 | 0:28.49 | 344017 | 346165 23 | 76:55.41 | 1:38.26 | 346166 | 353541 24 | 78:33.67 | 0:39.26 | 353542 | 356492
Range status and errors
Selected range
Filename J:\New Music\CDA67938 - Miserere - A sequence of music for Lent\Miserere - A Sequence of Music for Lent.wav
Peak level 99.0 % Extraction speed 2.7 X Range quality 99.9 % Test CRC 2A2C1196 Copy CRC 2A2C1196 Copy OK
No errors occurred
AccurateRip summary
Track 1 not present in databaseTrack 2 not present in databaseTrack 3 not present in databaseTrack 4 not present in databaseTrack 5 not present in databaseTrack 6 not present in databaseTrack 7 not present in databaseTrack 8 not present in databaseTrack 9 not present in databaseTrack 10 not present in databaseTrack 11 not present in databaseTrack 12 not present in databaseTrack 13 not present in databaseTrack 14 not present in databaseTrack 15 not present in databaseTrack 16 not present in databaseTrack 17 not present in databaseTrack 18 not present in databaseTrack 19 not present in databaseTrack 20 not present in databaseTrack 21 not present in databaseTrack 22 not present in databaseTrack 23 not present in databaseTrack 24 not present in database
None of the tracks are present in the AccurateRip database
End of status report
==== Log checksum C70A0E491E34E8783A2BC2F0E86721A81C167A249E2C9845971698E4B2508C3D ====
[teatrix.ru].t7970.torrent 
Торрент: Зарегистрирован [ 2015-10-14 02:42 ] · 412DA5A4437E88BA157520F201E54956D48F0995

Скачать .torrent

Скачать

27 KB

Статус: проверено
Скачан: 0 раз
Размер: 325 MB
terms.php



Быстрый ответ

Имя:

      
Для отправки сообщений необходимо включить JavaScript
Показать сообщения:    

Текущее время: 09-Дек 22:27

Часовой пояс: UTC + 3


Вы можете начинать темы
Вы можете отвечать на сообщения
Вы не можете редактировать свои сообщения
Вы не можете удалять свои сообщения
Вы не можете голосовать в опросах
Вы не можете прикреплять файлы к сообщениям
Вы можете скачивать файлы