(Classical) Bach - Johannes Passion, BWV 245 (Ainsley, Richardson, Bott, Chance, Agnew, Varcoe; King\'s College Choir Cambridge, The Brandenburg Consort, Stephen Cleobury) - 1996, FLAC (image+.cue) lossless


Статистика раздачи [Обновить пиров]
Размер:  612 MB   |    Зарегистрирован:  1 год 1 месяц   |    Скачан:  0 раз

Полного источника не было: Никогда

 
   
 
 
 

[Цитировать]

Bach - Johannes Passion, BWV 245 (Ainsley, Richardson, Bott, Chance, Agnew, Varcoe; King's College Choir Cambridge, The Brandenburg Consort, Stephen Cleobury)
Жанр: Classical
Год издания диска: 1996
Издатель (лейбл): Brilliant Classics
Номер по каталогу: A911
Аудиокодек: FLAC
Тип рипа: image+.cue
Битрейт аудио: lossless
Продолжительность: CD1: 72’36, CD2: 64’18
Источник: собственный рип
Наличие сканов в содержимом раздачи: да
Треклист:
CD1
1. Part 1. Chorus. Herr, unser Herrscher (8:33)
2. Recit. Jesus ging mit seinen Jungern (2:28)
3. Chorale. O gross Lieb (0:47)
4. Recit. Auf dass das Wort erfullet wurde (1:07)
5. Chorale. Dein Will gescheh, Herr Gott, zugleich (0:54)
6. Recit. Die Schar aber und der Oberhauptmann (0:53)
7. Aria. Von den Stricken meiner Sunden (4:45)
8. Recit. Simon Petrus aber folgete Jesu nach (0:15)
9. Aria. Ich folge dir gleichfalls mir freudigen Schritten (3:52)
10. Recit. Derselbige Junger war dem Hohenpriester bekannt (3:14)
11. Chorale. Wer hat dich so geschlagen (1:37)
12. Recit. Und Hannas sandte ihn gebunden (2:28)
13. Aria. Ach, mein Sinn (2:27)
14. Chorale. Petrus, der nicht denkt zuruck (1:02)
15. Chorale. Christus, der uns selig macht (1:02)
16. Part 2. Recit. Da fuhreten sie Jesum von Kaipha vor das Richthaus (4:16)
17. Chorale. Ach grosser Konig (1:28)
18. Recit. Da sprach Pilatus zu ihm (2:00)
19. Arioso. Betrachte, meine Seele (2:30)
20. Aria. Erwage, wie sein blurgefarbter Rucken (8:42)
21. Recit. Und die Kriegsknechte flochten eine Krone (5:45)
22. Chorus. Durch dein Gefangnis, Gottes Sohn (0:54)
23. Recit. Die Juden aber schrieen und sprachen (4:14)
24. Aria. Eilt, ihr angefochtnen Seelen (4:05)
25. Recit. Allda kreuzigten sie ihn (2:12)
26. Chorale. In meines Herzens Grunde (1:06)
CD2
1. Part 2. Recit. Die Kriegsknechte aber (3:55)
2. Chorale. Er nahm alles wohl in acht (1:00)
3. Recit. Und von Stund an nahm sie die Junger (1:30)
4. Aria. Es ist vollbracht! (5:28)
5. Recit. Und neiget das Haupt und verschied (0:26)
6. Aria. Mein teurer Heilan, la. dich fragen (4:42)
7. Recit. Und siche da, der Vorhang im Tempel (0:32)
8. Arioso. Mein Herz, indem die ganze Welt (0:57)
9. Aria. Zerfliesse, mein Herze (7:09)
10. Recit. Die Juden aber, dieweil es der Rusttag war (2:17)
11. Chorale. O hilf, Christe, Gottes Sohn (0:56)
12. Recit. Darnach bat Pilatum Joseph von Arimathia (2:16)
13. Chorus. Ruht wohl, ihr heiligen Gebeine (6:24)
14. Chorale. Ach Herr, lass dein lieb Engelein (1:42)
15. Appendix No.01, Chorale. O Mensch, bewein dein Sunde gross (5:40)
16. Appendix No.11, Aria- Basso. Himmel reisse, Welt erbebe (3:52)
17. Appendix No.13, Aria- Tenore. Zerschmettert mich (5:24)
18. Appendix No.19, Aria- Tenore. Ach windet euch nicht so (6:07)
19. Appendix No.40, Chorale. Christe, du Lamm Gottes (4:01)
Исполнители:
Tenor [Evangelist]: John Mark Ainsley;
Bass [Jesus]: Stephen Richardson;
Soprano: Catherine Bott;
Alto: Michael Chance;
Tenor: Paul Agnew;
Bass: Stephen Varcoe
King's College Choir Cambridge / The Brandenburg Consort
(Leader: Roy Goodman)
Conducted by Stephen Cleobury

LOG EAC

CD 1

Exact Audio Copy V1.0 beta 3 from 29. August 2011
EAC extraction logfile from 22. January 2014, 10:50
Stephen Cleobury / Bach- Johannes Passion, BWV 245 - CD1
Used drive : HL-DT-STDVDRAM GH41N Adapter: 1 ID: 0
Read mode : Secure
Utilize accurate stream : Yes
Defeat audio cache : Yes
Make use of C2 pointers : No
Read offset correction : 667
Overread into Lead-In and Lead-Out : No
Fill up missing offset samples with silence : Yes
Delete leading and trailing silent blocks : No
Null samples used in CRC calculations : Yes
Used interface : Installed external ASPI interface
Used output format : User Defined Encoder
Selected bitrate : 192 kBit/s
Quality : High
Add ID3 tag : No
Command line compressor : C:\Program Files\Exact Audio Copy\Flac\flac.exe
Additional command line options : -V -8 -T "Date=%year%" -T "Genre=%genre%" %source%
TOC of the extracted CD
Track | Start | Length | Start sector | End sector
---------------------------------------------------------
1 | 0:00.00 | 8:34.38 | 0 | 38587
2 | 8:34.38 | 2:28.10 | 38588 | 49697
3 | 11:02.48 | 0:46.70 | 49698 | 53217
4 | 11:49.43 | 1:06.45 | 53218 | 58212
5 | 12:56.13 | 0:54.40 | 58213 | 62302
6 | 13:50.53 | 0:53.12 | 62303 | 66289
7 | 14:43.65 | 4:44.38 | 66290 | 87627
8 | 19:28.28 | 0:15.20 | 87628 | 88772
9 | 19:43.48 | 3:52.62 | 88773 | 106234
10 | 23:36.35 | 3:15.48 | 106235 | 120907
11 | 26:52.08 | 1:37.57 | 120908 | 128239
12 | 28:29.65 | 2:31.15 | 128240 | 139579
13 | 31:01.05 | 2:29.00 | 139580 | 150754
14 | 33:30.05 | 1:08.15 | 150755 | 155869
15 | 34:38.20 | 1:02.25 | 155870 | 160544
16 | 35:40.45 | 4:15.38 | 160545 | 179707
17 | 39:56.08 | 1:28.60 | 179708 | 186367
18 | 41:24.68 | 2:01.52 | 186368 | 195494
19 | 43:26.45 | 2:31.58 | 195495 | 206877
20 | 45:58.28 | 8:42.27 | 206878 | 246054
21 | 54:40.55 | 5:46.18 | 246055 | 272022
22 | 60:26.73 | 0:53.70 | 272023 | 276067
23 | 61:20.68 | 4:13.55 | 276068 | 295097
24 | 65:34.48 | 4:05.35 | 295098 | 313507
25 | 69:40.08 | 2:12.02 | 313508 | 323409
26 | 71:52.10 | 1:06.03 | 323410 | 328362
Range status and errors
Selected range
Filename C:\Program Files\Exact Audio Copy\Flac\Bach- Johannes Passion, BWV 245 (Stephen Cleobury) - CD1.wav
Peak level 100.0 %
Extraction speed 2.0 X
Range quality 100.0 %
Test CRC 2C2A990B
Copy CRC 2C2A990B
Copy OK
No errors occurred
AccurateRip summary
Track 1 accurately ripped (confidence 18) [8CE7FE9E] (AR v2)
Track 2 accurately ripped (confidence 18) [889451B8] (AR v2)
Track 3 accurately ripped (confidence 18) [5B9683EE] (AR v2)
Track 4 accurately ripped (confidence 18) [754A9530] (AR v2)
Track 5 accurately ripped (confidence 18) [1C0C3D8F] (AR v2)
Track 6 accurately ripped (confidence 18) [0619B611] (AR v2)
Track 7 accurately ripped (confidence 18) [69ECB142] (AR v2)
Track 8 accurately ripped (confidence 18) [35DD67E6] (AR v2)
Track 9 accurately ripped (confidence 18) [8874BC5A] (AR v2)
Track 10 accurately ripped (confidence 18) [A20DCD51] (AR v2)
Track 11 accurately ripped (confidence 18) [A022D0A7] (AR v2)
Track 12 accurately ripped (confidence 18) [74A6456F] (AR v2)
Track 13 accurately ripped (confidence 18) [E47B72FF] (AR v2)
Track 14 accurately ripped (confidence 18) [678017E9] (AR v2)
Track 15 accurately ripped (confidence 18) [39F2EAF7] (AR v2)
Track 16 accurately ripped (confidence 18) [E9793003] (AR v2)
Track 17 accurately ripped (confidence 18) [964D7F14] (AR v2)
Track 18 accurately ripped (confidence 18) [697BFC55] (AR v2)
Track 19 accurately ripped (confidence 18) [113772A5] (AR v2)
Track 20 accurately ripped (confidence 18) [FDD955CB] (AR v2)
Track 21 accurately ripped (confidence 18) [D61A2532] (AR v2)
Track 22 accurately ripped (confidence 18) [CD910985] (AR v2)
Track 23 accurately ripped (confidence 17) [F805CD10] (AR v2)
Track 24 accurately ripped (confidence 17) [EF004E03] (AR v2)
Track 25 accurately ripped (confidence 17) [89404151] (AR v2)
Track 26 accurately ripped (confidence 18) [69E44CC9] (AR v2)
All tracks accurately ripped
End of status report
==== Log checksum 940A8F668716CD61BD3426BD2C920A27A2733388AAB13E84FFB3C2046AB071C2 ====

CD 2

Exact Audio Copy V1.0 beta 3 from 29. August 2011
EAC extraction logfile from 22. January 2014, 13:22
Stephen Cleobury / Bach- Johannes Passion, BWV 245 - CD2
Used drive : HL-DT-STDVDRAM GH41N Adapter: 1 ID: 0
Read mode : Secure
Utilize accurate stream : Yes
Defeat audio cache : Yes
Make use of C2 pointers : No
Read offset correction : 667
Overread into Lead-In and Lead-Out : No
Fill up missing offset samples with silence : Yes
Delete leading and trailing silent blocks : No
Null samples used in CRC calculations : Yes
Used interface : Installed external ASPI interface
Used output format : User Defined Encoder
Selected bitrate : 192 kBit/s
Quality : High
Add ID3 tag : No
Command line compressor : C:\Program Files\Exact Audio Copy\Flac\flac.exe
Additional command line options : -V -8 -T "Date=%year%" -T "Genre=%genre%" %source%
TOC of the extracted CD
Track | Start | Length | Start sector | End sector
---------------------------------------------------------
1 | 0:00.00 | 3:55.63 | 0 | 17687
2 | 3:55.63 | 1:00.20 | 17688 | 22207
3 | 4:56.08 | 1:30.70 | 22208 | 29027
4 | 6:27.03 | 5:32.02 | 29028 | 53929
5 | 11:59.05 | 0:28.13 | 53930 | 56042
6 | 12:27.18 | 4:43.37 | 56043 | 77304
7 | 17:10.55 | 0:32.23 | 77305 | 79727
8 | 17:43.03 | 0:59.05 | 79728 | 84157
9 | 18:42.08 | 7:10.27 | 84158 | 116434
10 | 25:52.35 | 2:17.03 | 116435 | 126712
11 | 28:09.38 | 0:57.62 | 126713 | 131049
12 | 29:07.25 | 2:19.30 | 131050 | 141504
13 | 31:26.55 | 6:24.63 | 141505 | 170367
14 | 37:51.43 | 1:51.32 | 170368 | 178724
15 | 39:43.00 | 5:47.00 | 178725 | 204749
16 | 45:30.00 | 3:58.00 | 204750 | 222599
17 | 49:28.00 | 5:31.00 | 222600 | 247424
18 | 54:59.00 | 6:14.00 | 247425 | 275474
19 | 61:13.00 | 4:01.13 | 275475 | 293562
Range status and errors
Selected range
Filename C:\Program Files\Exact Audio Copy\Flac\Bach- Johannes Passion, BWV 245 (Stephen Cleobury) - CD2.wav
Peak level 87.4 %
Extraction speed 1.9 X
Range quality 99.9 %
Test CRC D6D3DC87
Copy CRC D6D3DC87
Copy OK
No errors occurred
AccurateRip summary
Track 1 accurately ripped (confidence 28) [4EEFE37A] (AR v2)
Track 2 accurately ripped (confidence 28) [665C6B53] (AR v2)
Track 3 accurately ripped (confidence 28) [F153EBA0] (AR v2)
Track 4 accurately ripped (confidence 28) [470C2A52] (AR v2)
Track 5 accurately ripped (confidence 28) [9DD1D16D] (AR v2)
Track 6 accurately ripped (confidence 28) [7C578D38] (AR v2)
Track 7 accurately ripped (confidence 28) [874D53E2] (AR v2)
Track 8 accurately ripped (confidence 28) [8FFF6285] (AR v2)
Track 9 accurately ripped (confidence 28) [EF0C47F2] (AR v2)
Track 10 accurately ripped (confidence 28) [C10CBE1C] (AR v2)
Track 11 accurately ripped (confidence 27) [E5B887D0] (AR v2)
Track 12 accurately ripped (confidence 27) [3AA51EC9] (AR v2)
Track 13 accurately ripped (confidence 28) [4AB7E2F0] (AR v2)
Track 14 accurately ripped (confidence 28) [36B205CD] (AR v2)
Track 15 accurately ripped (confidence 28) [C28F13DD] (AR v2)
Track 16 accurately ripped (confidence 28) [DA007790] (AR v2)
Track 17 accurately ripped (confidence 28) [01C9FBF8] (AR v2)
Track 18 accurately ripped (confidence 28) [DF74225D] (AR v2)
Track 19 accurately ripped (confidence 27) [8C8139B9] (AR v2)
All tracks accurately ripped
End of status report
==== Log checksum E38559D5359B13A41CAB5941A154DF5BFC26BBB8F3989F4CAFB0BA5853DC5F6A ====
mp3
[teatrix.ru].t7971.torrent 
Торрент: Зарегистрирован [ 2015-10-14 02:42 ] · 854A74398B9EE90F7EEF2DFEFE667B0FA6F8FEDA

Скачать .torrent

Скачать

13 KB

Статус: проверено
Скачан: 0 раз
Размер: 612 MB
terms.php



Быстрый ответ

Имя:

      
Для отправки сообщений необходимо включить JavaScript
Показать сообщения:    

Текущее время: 04-Дек 11:12

Часовой пояс: UTC + 3


Вы можете начинать темы
Вы можете отвечать на сообщения
Вы не можете редактировать свои сообщения
Вы не можете удалять свои сообщения
Вы не можете голосовать в опросах
Вы не можете прикреплять файлы к сообщениям
Вы можете скачивать файлы