(Classical) George Frideric Handel - Messiah, HWV 56 (Andrew Davis, Toronto Symphony Orchestra & Toronto Mendelssohn Choir; Battle, Quivar, Aler, Ramey) - 2008, FLAC (tracks+.cue) lossless


Статистика раздачи [Обновить пиров]
Размер:  555 MB   |    Зарегистрирован:  1 год 1 месяц   |    Скачан:  0 раз

Полного источника не было: Никогда

 
   
 
 
 

[Цитировать]

George Frideric Handel - Messiah, HWV 56 (Andrew Davis, Toronto Symphony Orchestra & Toronto Mendelssohn Choir; Battle, Quivar, Aler, Ramey)
Жанр: Classical
Год выпуска диска: 2008
Производитель диска: EMI Classics
Номер по каталогу: 176452
Аудио кодек: FLAC (*.flac)
Тип рипа: tracks+.cue
Битрейт аудио: lossless
Продолжительность: CD1:73’02; CD2:73’00
Источник: собственный рип
Наличие сканов в содержимом раздачи: да
Исполнители:
Kathleen Battle - Soprano,
Florence Quivar - Alto,
John Aler - Tenor,
Samuel Ramey - Bass
Toronto Symphony Orchestra & Toronto Mendelssohn Choir
Andrew Davis
Треклист:
CD 1
1-22 Part the fiest 57:22
23-24 Part the second (beginning) 15:34
CD 2
1-22 Part the second (conclusion) 39:45
23-24 Part the third 33:03

LOG EAC

CD 1

Exact Audio Copy V1.0 beta 3 from 29. August 2011
EAC extraction logfile from 7. March 2014, 22:34
Davis / Handel. Messiah (Disc 1)
Used drive : ATAPI iHAS122 C Adapter: 0 ID: 0
Read mode : Secure
Utilize accurate stream : Yes
Defeat audio cache : Yes
Make use of C2 pointers : No
Read offset correction : 6
Overread into Lead-In and Lead-Out : No
Fill up missing offset samples with silence : Yes
Delete leading and trailing silent blocks : No
Null samples used in CRC calculations : Yes
Used interface : Native Win32 interface for Win NT & 2000
Gap handling : Appended to previous track
Used output format : User Defined Encoder
Selected bitrate : 192 kBit/s
Quality : High
Add ID3 tag : No
Command line compressor : C:\Program Files\Exact Audio Copy\Flac\flac.exe
Additional command line options : -V -8 -T "Date=%year%" -T "Genre=%genre%" %source%
TOC of the extracted CD
Track | Start | Length | Start sector | End sector
---------------------------------------------------------
1 | 0:00.00 | 3:32.50 | 0 | 15949
2 | 3:32.50 | 2:47.72 | 15950 | 28546
3 | 6:20.47 | 3:21.13 | 28547 | 43634
4 | 9:41.60 | 2:52.04 | 43635 | 56538
5 | 12:33.64 | 1:31.48 | 56539 | 63411
6 | 14:05.37 | 4:41.13 | 63412 | 84499
7 | 18:46.50 | 2:23.37 | 84500 | 95261
8 | 21:10.12 | 0:25.55 | 95262 | 97191
9 | 21:35.67 | 5:27.55 | 97192 | 121771
10 | 27:03.47 | 2:42.00 | 121772 | 133921
11 | 29:45.47 | 4:17.00 | 133922 | 153196
12 | 34:02.47 | 3:57.28 | 153197 | 170999
13 | 38:00.00 | 3:06.50 | 171000 | 184999
14 | 41:06.50 | 0:16.47 | 185000 | 186246
15 | 41:23.22 | 0:20.11 | 186247 | 187757
16 | 41:43.33 | 0:38.05 | 187758 | 190612
17 | 42:21.38 | 0:17.58 | 190613 | 191945
18 | 42:39.21 | 1:57.16 | 191946 | 200736
19 | 44:36.37 | 4:34.58 | 200737 | 221344
20 | 49:11.20 | 0:30.22 | 221345 | 223616
21 | 49:41.42 | 5:23.01 | 223617 | 247842
22 | 55:04.43 | 2:23.57 | 247843 | 258624
23 | 57:28.25 | 3:12.22 | 258625 | 273046
24 | 60:40.47 | 12:22.11 | 273047 | 328707
Track 1
Filename C:\Program Files\Exact Audio Copy\Flac\01 Sinfonia.wav
Pre-gap length 0:00:02.00
Peak level 30.1 %
Extraction speed 5.4 X
Track quality 100.0 %
Test CRC 42464B02
Copy CRC 42464B02
Accurately ripped (confidence 2) [DAE418C0] (AR v1)
Copy OK
Track 2
Filename C:\Program Files\Exact Audio Copy\Flac\02 Comfort ye my people (Recitative-Tenor).wav
Pre-gap length 0:00:00.08
Peak level 30.3 %
Extraction speed 4.4 X
Track quality 99.9 %
Test CRC 197611D5
Copy CRC 197611D5
Accurately ripped (confidence 2) [8DF0E2D4] (AR v1)
Copy OK
Track 3
Filename C:\Program Files\Exact Audio Copy\Flac\03 Ev'ry valley shall be exalted (Air-Tenor).wav
Peak level 21.8 %
Extraction speed 5.0 X
Track quality 99.9 %
Test CRC FAC5DE55
Copy CRC FAC5DE55
Accurately ripped (confidence 2) [13575B48] (AR v1)
Copy OK
Track 4
Filename C:\Program Files\Exact Audio Copy\Flac\04 And the glory, the glory of the Lord (Chorus).wav
Peak level 99.8 %
Extraction speed 6.3 X
Track quality 100.0 %
Test CRC FCF20EAB
Copy CRC FCF20EAB
Accurately ripped (confidence 2) [50046105] (AR v1)
Copy OK
Track 5
Filename C:\Program Files\Exact Audio Copy\Flac\05 Thus saith the Lord (Recitative - Bass).wav
Peak level 43.0 %
Extraction speed 4.0 X
Track quality 99.8 %
Test CRC 0570AA91
Copy CRC 0570AA91
Accurately ripped (confidence 2) [EDE13AE4] (AR v1)
Copy OK
Track 6
Filename C:\Program Files\Exact Audio Copy\Flac\06 But who may abide (Air-Bass).wav
Peak level 39.7 %
Extraction speed 6.3 X
Track quality 99.9 %
Test CRC A27AA7E8
Copy CRC A27AA7E8
Accurately ripped (confidence 2) [3DBBF7CF] (AR v1)
Copy OK
Track 7
Filename C:\Program Files\Exact Audio Copy\Flac\07 And He shall purify (Chorus).wav
Peak level 69.6 %
Extraction speed 6.9 X
Track quality 100.0 %
Test CRC 9C42C721
Copy CRC 9C42C721
Accurately ripped (confidence 2) [3E2B8C41] (AR v1)
Copy OK
Track 8
Filename C:\Program Files\Exact Audio Copy\Flac\08 Behold a virgin shall conceive (Recitative-Alto).wav
Pre-gap length 0:00:01.35
Peak level 16.6 %
Extraction speed 3.6 X
Track quality 100.0 %
Test CRC 1E6E9542
Copy CRC 1E6E9542
Accurately ripped (confidence 2) [783CCE3D] (AR v1)
Copy OK
Track 9
Filename C:\Program Files\Exact Audio Copy\Flac\09 O thou that tellest (Air-Alto & Chorus).wav
Peak level 60.1 %
Extraction speed 1.3 X
Track quality 99.9 %
Test CRC 2EF4C312
Copy CRC 2EF4C312
Accurately ripped (confidence 2) [65C7F52C] (AR v1)
Copy OK
Track 10
Filename C:\Program Files\Exact Audio Copy\Flac\10 For behold darkness shall cover the earth (Recitative-Bass).wav
Pre-gap length 0:00:01.37
Peak level 23.1 %
Extraction speed 6.1 X
Track quality 99.9 %
Test CRC 263EDFEE
Copy CRC 263EDFEE
Accurately ripped (confidence 2) [5FC0BF1B] (AR v1)
Copy OK
Track 11
Filename C:\Program Files\Exact Audio Copy\Flac\11 The people that walked in darkness (Air-Bass).wav
Peak level 30.8 %
Extraction speed 8.7 X
Track quality 100.0 %
Test CRC 968A0DF0
Copy CRC 968A0DF0
Accurately ripped (confidence 2) [8BB9E127] (AR v1)
Copy OK
Track 12
Filename C:\Program Files\Exact Audio Copy\Flac\12 For unto us a child is born (Chorus).wav
Peak level 92.8 %
Extraction speed 7.5 X
Track quality 99.9 %
Test CRC CCAA4ECC
Copy CRC CCAA4ECC
Accurately ripped (confidence 2) [A5D00358] (AR v1)
Copy OK
Track 13
Filename C:\Program Files\Exact Audio Copy\Flac\13 Pifa (Pastoral Symphony).wav
Pre-gap length 0:00:01.63
Peak level 5.0 %
Extraction speed 8.9 X
Track quality 100.0 %
Test CRC FFC02112
Copy CRC FFC02112
Accurately ripped (confidence 2) [F963A263] (AR v1)
Copy OK
Track 14
Filename C:\Program Files\Exact Audio Copy\Flac\14 There were shepherds (Recitative-Soprano).wav
Peak level 15.6 %
Extraction speed 3.2 X
Track quality 100.0 %
Test CRC CCF9BC3D
Copy CRC CCF9BC3D
Accurately ripped (confidence 2) [A84FE3E6] (AR v1)
Copy OK
Track 15
Filename C:\Program Files\Exact Audio Copy\Flac\15 And lo the Angel of the Lord (Recitative-Soprano).wav
Peak level 29.1 %
Extraction speed 3.9 X
Track quality 100.0 %
Test CRC AEB74DA0
Copy CRC AEB74DA0
Accurately ripped (confidence 2) [C8139BA7] (AR v1)
Copy OK
Track 16
Filename C:\Program Files\Exact Audio Copy\Flac\16 And the angel said unto them (Recitative-Soprano).wav
Peak level 21.3 %
Extraction speed 5.6 X
Track quality 100.0 %
Test CRC 7AB0A1EB
Copy CRC 7AB0A1EB
Accurately ripped (confidence 2) [E3C8E94C] (AR v1)
Copy OK
Track 17
Filename C:\Program Files\Exact Audio Copy\Flac\17 And suddenly there was with the angel (Recitative-Soprano).wav
Peak level 52.5 %
Extraction speed 3.6 X
Track quality 100.0 %
Test CRC 7D9D0FFC
Copy CRC 7D9D0FFC
Accurately ripped (confidence 2) [8EFB2458] (AR v1)
Copy OK
Track 18
Filename C:\Program Files\Exact Audio Copy\Flac\18 Glory to God in the highest (Chorus).wav
Peak level 89.3 %
Extraction speed 6.1 X
Track quality 99.9 %
Test CRC 84277045
Copy CRC 84277045
Accurately ripped (confidence 2) [DB10D54F] (AR v1)
Copy OK
Track 19
Filename C:\Program Files\Exact Audio Copy\Flac\19 Rejoice greatly o daughter of Zion (Air-Soprano).wav
Pre-gap length 0:00:00.02
Peak level 51.3 %
Extraction speed 10.0 X
Track quality 100.0 %
Test CRC 90FFDD3C
Copy CRC 90FFDD3C
Accurately ripped (confidence 2) [BB85B3A2] (AR v1)
Copy OK
Track 20
Filename C:\Program Files\Exact Audio Copy\Flac\20 Then shall the eyes of the blind (Recitative-Alto).wav
Peak level 18.1 %
Extraction speed 5.1 X
Track quality 100.0 %
Test CRC 6A19B564
Copy CRC 6A19B564
Accurately ripped (confidence 2) [EA9D6E0A] (AR v1)
Copy OK
Track 21
Filename C:\Program Files\Exact Audio Copy\Flac\21 He shall feed his flock (Duet-Alto & Soprano).wav
Peak level 30.2 %
Extraction speed 9.2 X
Track quality 99.9 %
Test CRC 7F7A5C52
Copy CRC 7F7A5C52
Accurately ripped (confidence 2) [D4A7AC6A] (AR v1)
Copy OK
Track 22
Filename C:\Program Files\Exact Audio Copy\Flac\22 His yoke is easy (Chorus).wav
Peak level 72.4 %
Extraction speed 7.4 X
Track quality 99.9 %
Test CRC C2A88858
Copy CRC C2A88858
Accurately ripped (confidence 2) [4728F300] (AR v1)
Copy OK
Track 23
Filename C:\Program Files\Exact Audio Copy\Flac\23 Behold the Lamb of God (Chorus).wav
Pre-gap length 0:00:06.05
Peak level 52.1 %
Extraction speed 10.4 X
Track quality 100.0 %
Test CRC 85134D12
Copy CRC 85134D12
Accurately ripped (confidence 2) [E8AE1247] (AR v1)
Copy OK
Track 24
Filename C:\Program Files\Exact Audio Copy\Flac\24 He was despised (Air-Alto).wav
Pre-gap length 0:00:01.52
Peak level 19.0 %
Extraction speed 1.4 X
Track quality 99.9 %
Test CRC 8EF34B10
Copy CRC 8EF34B10
Accurately ripped (confidence 2) [3E01AF21] (AR v1)
Copy OK
All tracks accurately ripped
No errors occurred
End of status report
==== Log checksum 32660AB5162F9C003EB72E71AACBC6776EBB5165F716AA33B811C27A8E539EA5 ====

CD 2

Exact Audio Copy V1.0 beta 3 from 29. August 2011
EAC extraction logfile from 8. March 2014, 12:26
Davis / Handel. Messiah (Disc 2)
Used drive : ATAPI iHAS122 C Adapter: 0 ID: 0
Read mode : Secure
Utilize accurate stream : Yes
Defeat audio cache : Yes
Make use of C2 pointers : No
Read offset correction : 6
Overread into Lead-In and Lead-Out : No
Fill up missing offset samples with silence : Yes
Delete leading and trailing silent blocks : No
Null samples used in CRC calculations : Yes
Used interface : Native Win32 interface for Win NT & 2000
Gap handling : Appended to previous track
Used output format : User Defined Encoder
Selected bitrate : 192 kBit/s
Quality : High
Add ID3 tag : No
Command line compressor : C:\Program Files\Exact Audio Copy\Flac\flac.exe
Additional command line options : -V -8 -T "Date=%year%" -T "Genre=%genre%" %source%
TOC of the extracted CD
Track | Start | Length | Start sector | End sector
---------------------------------------------------------
1 | 0:00.00 | 1:56.07 | 0 | 8706
2 | 1:56.07 | 1:43.11 | 8707 | 16442
3 | 3:39.18 | 3:53.14 | 16443 | 33931
4 | 7:32.32 | 0:43.54 | 33932 | 37210
5 | 8:16.11 | 2:16.44 | 37211 | 47454
6 | 10:32.55 | 1:52.40 | 47455 | 55894
7 | 12:25.20 | 1:30.74 | 55895 | 62718
8 | 13:56.19 | 0:17.66 | 62719 | 64059
9 | 14:14.10 | 2:07.52 | 64060 | 73636
10 | 16:21.62 | 3:07.22 | 73637 | 87683
11 | 19:29.09 | 0:16.58 | 87684 | 88941
12 | 19:45.67 | 1:22.28 | 88942 | 95119
13 | 21:08.20 | 3:21.57 | 95120 | 110251
14 | 24:30.02 | 1:08.60 | 110252 | 115411
15 | 25:38.62 | 2:13.55 | 115412 | 125441
16 | 27:52.42 | 1:25.02 | 125442 | 131818
17 | 29:17.44 | 2:43.47 | 131819 | 144090
18 | 32:01.16 | 1:42.34 | 144091 | 151774
19 | 33:43.50 | 0:13.57 | 151775 | 152806
20 | 33:57.32 | 1:59.35 | 152807 | 161766
21 | 35:56.67 | 3:53.58 | 161767 | 179299
22 | 39:50.50 | 6:10.32 | 179300 | 207081
23 | 46:01.07 | 2:03.32 | 207082 | 216338
24 | 48:04.39 | 0:33.46 | 216339 | 218859
25 | 48:38.10 | 8:59.50 | 218860 | 259334
26 | 57:37.60 | 0:18.35 | 259335 | 260719
27 | 57:56.20 | 0:54.32 | 260720 | 264801
28 | 58:50.52 | 2:03.15 | 264802 | 274041
29 | 60:53.67 | 4:56.55 | 274042 | 296296
30 | 65:50.47 | 7:09.55 | 296297 | 328526
Track 1
Filename C:\Program Files\Exact Audio Copy\Flac\01 Surely He Hath Borne Our Griefs (Chorus).wav
Pre-gap length 0:00:02.00
Peak level 76.4 %
Extraction speed 1.6 X
Track quality 100.0 %
Test CRC 6686831D
Copy CRC 6686831D
Accurately ripped (confidence 2) [536F7608] (AR v2)
Copy OK
Track 2
Filename C:\Program Files\Exact Audio Copy\Flac\02 And With His Stripes We Are Healed (Chorus).wav
Peak level 58.5 %
Extraction speed 1.7 X
Track quality 100.0 %
Test CRC 73C26C46
Copy CRC 73C26C46
Accurately ripped (confidence 2) [DB9613CA] (AR v2)
Copy OK
Track 3
Filename C:\Program Files\Exact Audio Copy\Flac\03 All We Like Sheep (Chorus).wav
Peak level 49.0 %
Extraction speed 2.1 X
Track quality 100.0 %
Test CRC 1DF33014
Copy CRC 1DF33014
Accurately ripped (confidence 2) [634A6088] (AR v2)
Copy OK
Track 4
Filename C:\Program Files\Exact Audio Copy\Flac\04 All They That See Him (Recitative-Tenor).wav
Peak level 22.1 %
Extraction speed 1.4 X
Track quality 100.0 %
Test CRC 96BCDEE5
Copy CRC 96BCDEE5
Accurately ripped (confidence 2) [7B9AAE94] (AR v2)
Copy OK
Track 5
Filename C:\Program Files\Exact Audio Copy\Flac\05 He Trusted in God (Chorus).wav
Peak level 81.9 %
Extraction speed 2.1 X
Track quality 100.0 %
Test CRC 3E1FF745
Copy CRC 3E1FF745
Accurately ripped (confidence 2) [B1E20054] (AR v2)
Copy OK
Track 6
Filename C:\Program Files\Exact Audio Copy\Flac\06 Thy Rebuke Hath Broken His Heart (Recitative-Tenor).wav
Pre-gap length 0:00:00.13
Peak level 19.7 %
Extraction speed 1.2 X
Track quality 99.9 %
Test CRC 315E4054
Copy CRC 315E4054
Accurately ripped (confidence 2) [65FD2D11] (AR v2)
Copy OK
Track 7
Filename C:\Program Files\Exact Audio Copy\Flac\07 Behold and See if there Be Any Sorrow (Air-Tenor).wav
Peak level 13.0 %
Extraction speed 1.1 X
Track quality 99.8 %
Test CRC 4F434FFB
Copy CRC 4F434FFB
Accurately ripped (confidence 2) [D87E6B45] (AR v2)
Copy OK
Track 8
Filename C:\Program Files\Exact Audio Copy\Flac\08 He Was Cut Off Out of the Land (Recitative-Soprano II).wav
Peak level 18.9 %
Extraction speed 0.9 X
Track quality 100.0 %
Test CRC A831CDD5
Copy CRC A831CDD5
Accurately ripped (confidence 2) [50C1088A] (AR v2)
Copy OK
Track 9
Filename C:\Program Files\Exact Audio Copy\Flac\09 But Thou Didst Not Leave (Air-Soprano II).wav
Peak level 16.4 %
Extraction speed 2.3 X
Track quality 100.0 %
Test CRC 82E44075
Copy CRC 82E44075
Accurately ripped (confidence 2) [729A7224] (AR v2)
Copy OK
Track 10
Filename C:\Program Files\Exact Audio Copy\Flac\10 Lift Up Your Heads (Chorus).wav
Peak level 76.2 %
Extraction speed 2.6 X
Track quality 100.0 %
Test CRC 771072C1
Copy CRC 771072C1
Accurately ripped (confidence 2) [6B928485] (AR v2)
Copy OK
Track 11
Filename C:\Program Files\Exact Audio Copy\Flac\11 Unto Which of the Angels (Recitative-Tenor).wav
Peak level 17.0 %
Extraction speed 1.0 X
Track quality 100.0 %
Test CRC 5C789CAC
Copy CRC 5C789CAC
Accurately ripped (confidence 2) [F3903023] (AR v2)
Copy OK
Track 12
Filename C:\Program Files\Exact Audio Copy\Flac\12 Let All the Angels of God Worship Him (Chorus).wav
Peak level 79.7 %
Extraction speed 2.2 X
Track quality 100.0 %
Test CRC E17DDE4B
Copy CRC E17DDE4B
Accurately ripped (confidence 2) [60B6BA89] (AR v2)
Copy OK
Track 13
Filename C:\Program Files\Exact Audio Copy\Flac\13 Thou Art Gone Up On High (Air-Counter-Tenor).wav
Pre-gap length 0:00:00.20
Peak level 24.6 %
Extraction speed 2.8 X
Track quality 100.0 %
Test CRC 24713565
Copy CRC 24713565
Accurately ripped (confidence 2) [8AA27BE3] (AR v2)
Copy OK
Track 14
Filename C:\Program Files\Exact Audio Copy\Flac\14 The Lord Gave the Word (Chorus).wav
Peak level 46.5 %
Extraction speed 2.2 X
Track quality 100.0 %
Test CRC 41224E7C
Copy CRC 41224E7C
Accurately ripped (confidence 2) [9A73D5F2] (AR v2)
Copy OK
Track 15
Filename C:\Program Files\Exact Audio Copy\Flac\15 How Beautiful Are the Feet (Air-Soprano I).wav
Pre-gap length 0:00:01.02
Peak level 27.0 %
Extraction speed 2.7 X
Track quality 100.0 %
Test CRC 5860AF70
Copy CRC 5860AF70
Accurately ripped (confidence 2) [F67A1A60] (AR v2)
Copy OK
Track 16
Filename C:\Program Files\Exact Audio Copy\Flac\16 Their Sound is Gone Out (Chorus).wav
Peak level 55.1 %
Extraction speed 2.4 X
Track quality 100.0 %
Test CRC A6F27DFE
Copy CRC A6F27DFE
Accurately ripped (confidence 2) [08F7C576] (AR v2)
Copy OK
Track 17
Filename C:\Program Files\Exact Audio Copy\Flac\17 Why Do the Nations (Air-Bass).wav
Peak level 27.7 %
Extraction speed 3.0 X
Track quality 100.0 %
Test CRC E5D4F506
Copy CRC E5D4F506
Accurately ripped (confidence 2) [43B700E8] (AR v2)
Copy OK
Track 18
Filename C:\Program Files\Exact Audio Copy\Flac\18 Let Us Break their Bonds Asunder (Chorus).wav
Peak level 77.0 %
Extraction speed 2.7 X
Track quality 100.0 %
Test CRC 6DA27B0B
Copy CRC 6DA27B0B
Accurately ripped (confidence 2) [5C7E7416] (AR v2)
Copy OK
Track 19
Filename C:\Program Files\Exact Audio Copy\Flac\19 He that Dwelleth in Heaven (Recitative-Tenor).wav
Peak level 22.3 %
Extraction speed 0.9 X
Track quality 100.0 %
Test CRC FEAB9037
Copy CRC FEAB9037
Accurately ripped (confidence 2) [E11AB764] (AR v2)
Copy OK
Track 20
Filename C:\Program Files\Exact Audio Copy\Flac\20 Thou Shalt Break Them (Air-Tenor).wav
Peak level 31.2 %
Extraction speed 2.9 X
Track quality 100.0 %
Test CRC E9BFAC72
Copy CRC E9BFAC72
Accurately ripped (confidence 2) [E5F7279C] (AR v2)
Copy OK
Track 21
Filename C:\Program Files\Exact Audio Copy\Flac\21 Hallelujah (Chorus).wav
Peak level 97.6 %
Extraction speed 3.3 X
Track quality 100.0 %
Test CRC B24828DC
Copy CRC B24828DC
Accurately ripped (confidence 2) [856A3B37] (AR v2)
Copy OK
Track 22
Filename C:\Program Files\Exact Audio Copy\Flac\22 I Know That My Redeemer Liveth (Air-Soprano I).wav
Pre-gap length 0:00:05.00
Peak level 34.2 %
Extraction speed 3.7 X
Track quality 100.0 %
Test CRC BE56C146
Copy CRC BE56C146
Accurately ripped (confidence 2) [040871A5] (AR v2)
Copy OK
Track 23
Filename C:\Program Files\Exact Audio Copy\Flac\23 Since By Man Came Death (Chorus).wav
Pre-gap length 0:00:00.65
Peak level 65.8 %
Extraction speed 3.2 X
Track quality 100.0 %
Test CRC 9A065FCE
Copy CRC 9A065FCE
Accurately ripped (confidence 2) [8B3C6385] (AR v2)
Copy OK
Track 24
Filename C:\Program Files\Exact Audio Copy\Flac\24 Behold I Tell You a Mystery (Recitative-Bass).wav
Peak level 32.7 %
Extraction speed 2.0 X
Track quality 100.0 %
Test CRC 5C67D552
Copy CRC 5C67D552
Accurately ripped (confidence 2) [69C84C8D] (AR v2)
Copy OK
Track 25
Filename C:\Program Files\Exact Audio Copy\Flac\25 The Trumpet Shall Sound (Air-Bass).wav
Peak level 36.4 %
Extraction speed 4.1 X
Track quality 100.0 %
Test CRC 8FD9F0D0
Copy CRC 8FD9F0D0
Accurately ripped (confidence 2) [AAA9741E] (AR v2)
Copy OK
Track 26
Filename C:\Program Files\Exact Audio Copy\Flac\26 Then Shall Be Brought to Pass (Recitative-Counter-Tenor).wav
Peak level 19.6 %
Extraction speed 1.4 X
Track quality 100.0 %
Test CRC 84C96B46
Copy CRC 84C96B46
Accurately ripped (confidence 2) [9996E912] (AR v2)
Copy OK
Track 27
Filename C:\Program Files\Exact Audio Copy\Flac\27 O Death Where is thy Sting (Duet-Counter-Tenor, Tenor).wav
Peak level 17.3 %
Extraction speed 1.2 X
Track quality 99.8 %
Test CRC 77BDEA40
Copy CRC 77BDEA40
Accurately ripped (confidence 2) [1C99138B] (AR v2)
Copy OK
Track 28
Filename C:\Program Files\Exact Audio Copy\Flac\28 But Thanks Be to God (Chorus).wav
Peak level 56.7 %
Extraction speed 3.4 X
Track quality 100.0 %
Test CRC 56B4F408
Copy CRC 56B4F408
Accurately ripped (confidence 2) [46E468E1] (AR v2)
Copy OK
Track 29
Filename C:\Program Files\Exact Audio Copy\Flac\29 If God Be For Us (Air-Alto).wav
Pre-gap length 0:00:00.14
Peak level 29.8 %
Extraction speed 4.2 X
Track quality 100.0 %
Test CRC D8A1843D
Copy CRC D8A1843D
Accurately ripped (confidence 2) [731F0519] (AR v2)
Copy OK
Track 30
Filename C:\Program Files\Exact Audio Copy\Flac\30 Worty is the Lamb... Amen (Chorus).wav
Pre-gap length 0:00:01.42
Peak level 99.9 %
Extraction speed 4.5 X
Track quality 100.0 %
Test CRC 3CEE0EC4
Copy CRC 3CEE0EC4
Accurately ripped (confidence 2) [445325D8] (AR v2)
Copy OK
All tracks accurately ripped
No errors occurred
End of status report
==== Log checksum 4174F0C7687E96449B629E7B35128B74C29350A323A7FBB3106C5ADA7F3F412D ====

(.CUE)

CD 1

REM GENRE Classical
REM DATE 1987
REM DISCID 69111E18
REM COMMENT "ExactAudioCopy v1.0b3"
CATALOG 5099921764622
PERFORMER "Davis"
TITLE "Handel. Messiah (Disc 1)"
FILE "01 Sinfonia.wav" WAVE
TRACK 01 AUDIO
TITLE "Sinfonia"
PERFORMER "Davis"
ISRC USAR28701062
INDEX 01 00:00:00
TRACK 02 AUDIO
TITLE "Comfort ye my people (Recitative-Tenor)"
PERFORMER "Davis"
ISRC USAR28701063
INDEX 00 03:32:42
FILE "02 Comfort ye my people (Recitative-Tenor).wav" WAVE
INDEX 01 00:00:00
FILE "03 Ev'ry valley shall be exalted (Air-Tenor).wav" WAVE
TRACK 03 AUDIO
TITLE "Ev'ry valley shall be exalted (Air-Tenor)"
PERFORMER "Davis"
ISRC USAR28701064
INDEX 01 00:00:00
FILE "04 And the glory, the glory of the Lord (Chorus).wav" WAVE
TRACK 04 AUDIO
TITLE "And the glory, the glory of the Lord (Chorus)"
PERFORMER "Davis"
ISRC USAR28701065
INDEX 01 00:00:00
FILE "05 Thus saith the Lord (Recitative - Bass).wav" WAVE
TRACK 05 AUDIO
TITLE "Thus saith the Lord (Recitative - Bass)"
PERFORMER "Davis"
ISRC USAR28701066
INDEX 01 00:00:00
FILE "06 But who may abide (Air-Bass).wav" WAVE
TRACK 06 AUDIO
TITLE "But who may abide (Air-Bass)"
PERFORMER "Davis"
ISRC USAR28701067
INDEX 01 00:00:00
FILE "07 And He shall purify (Chorus).wav" WAVE
TRACK 07 AUDIO
TITLE "And He shall purify (Chorus)"
PERFORMER "Davis"
ISRC USAR28701068
INDEX 01 00:00:00
TRACK 08 AUDIO
TITLE "Behold a virgin shall conceive (Recitative-Alto)"
PERFORMER "Davis"
ISRC USAR28701069
INDEX 00 02:22:02
FILE "08 Behold a virgin shall conceive (Recitative-Alto).wav" WAVE
INDEX 01 00:00:00
FILE "09 O thou that tellest (Air-Alto & Chorus).wav" WAVE
TRACK 09 AUDIO
TITLE "O thou that tellest (Air-Alto & Chorus)"
PERFORMER "Davis"
ISRC USAR28701070
INDEX 01 00:00:00
TRACK 10 AUDIO
TITLE "For behold darkness shall cover the earth (Recitative-Bass)"
PERFORMER "Davis"
ISRC USAR28701071
INDEX 00 05:26:18
FILE "10 For behold darkness shall cover the earth (Recitative-Bass).wav" WAVE
INDEX 01 00:00:00
FILE "11 The people that walked in darkness (Air-Bass).wav" WAVE
TRACK 11 AUDIO
TITLE "The people that walked in darkness (Air-Bass)"
PERFORMER "Davis"
ISRC USAR28701072
INDEX 01 00:00:00
FILE "12 For unto us a child is born (Chorus).wav" WAVE
TRACK 12 AUDIO
TITLE "For unto us a child is born (Chorus)"
PERFORMER "Davis"
ISRC USAR28701073
INDEX 01 00:00:00
TRACK 13 AUDIO
TITLE "Pifa (Pastoral Symphony)"
PERFORMER "Davis"
ISRC USAR28701074
INDEX 00 03:55:40
FILE "13 Pifa (Pastoral Symphony).wav" WAVE
INDEX 01 00:00:00
FILE "14 There were shepherds (Recitative-Soprano).wav" WAVE
TRACK 14 AUDIO
TITLE "There were shepherds (Recitative-Soprano)"
PERFORMER "Davis"
ISRC USAR28701075
INDEX 01 00:00:00
FILE "15 And lo the Angel of the Lord (Recitative-Soprano).wav" WAVE
TRACK 15 AUDIO
TITLE "And lo the Angel of the Lord (Recitative-Soprano)"
PERFORMER "Davis"
ISRC USAR28701076
INDEX 01 00:00:00
FILE "16 And the angel said unto them (Recitative-Soprano).wav" WAVE
TRACK 16 AUDIO
TITLE "And the angel said unto them (Recitative-Soprano)"
PERFORMER "Davis"
ISRC USAR28701077
INDEX 01 00:00:00
FILE "17 And suddenly there was with the angel (Recitative-Soprano).wav" WAVE
TRACK 17 AUDIO
TITLE "And suddenly there was with the angel (Recitative-Soprano)"
PERFORMER "Davis"
ISRC USAR28701078
INDEX 01 00:00:00
FILE "18 Glory to God in the highest (Chorus).wav" WAVE
TRACK 18 AUDIO
TITLE "Glory to God in the highest (Chorus)"
PERFORMER "Davis"
ISRC USAR28701079
INDEX 01 00:00:00
TRACK 19 AUDIO
TITLE "Rejoice greatly o daughter of Zion (Air-Soprano)"
PERFORMER "Davis"
ISRC USAR28701080
INDEX 00 01:57:14
FILE "19 Rejoice greatly o daughter of Zion (Air-Soprano).wav" WAVE
INDEX 01 00:00:00
FILE "20 Then shall the eyes of the blind (Recitative-Alto).wav" WAVE
TRACK 20 AUDIO
TITLE "Then shall the eyes of the blind (Recitative-Alto)"
PERFORMER "Davis"
ISRC USAR28701081
INDEX 01 00:00:00
FILE "21 He shall feed his flock (Duet-Alto & Soprano).wav" WAVE
TRACK 21 AUDIO
TITLE "He shall feed his flock (Duet-Alto & Soprano)"
PERFORMER "Davis"
ISRC USAR28701082
INDEX 01 00:00:00
FILE "22 His yoke is easy (Chorus).wav" WAVE
TRACK 22 AUDIO
TITLE "His yoke is easy (Chorus)"
PERFORMER "Davis"
ISRC USAR28701083
INDEX 01 00:00:00
TRACK 23 AUDIO
TITLE "Behold the Lamb of God (Chorus)"
PERFORMER "Davis"
ISRC USAR28701085
INDEX 00 02:17:52
FILE "23 Behold the Lamb of God (Chorus).wav" WAVE
INDEX 01 00:00:00
TRACK 24 AUDIO
TITLE "He was despised (Air-Alto)"
PERFORMER "Davis"
ISRC USAR28701086
INDEX 00 03:10:45
FILE "24 He was despised (Air-Alto).wav" WAVE
INDEX 01 00:00:00

CD 2

REM GENRE Classical
REM DATE 1987
REM DISCID CD111C1E
REM COMMENT "ExactAudioCopy v1.0b3"
CATALOG 5099921764721
PERFORMER "Davis"
TITLE "Handel. Messiah (Disc 2)"
FILE "01 Surely He Hath Borne Our Griefs (Chorus).wav" WAVE
TRACK 01 AUDIO
TITLE "Surely He Hath Borne Our Griefs (Chorus)"
PERFORMER "Davis"
ISRC USAR28701087
INDEX 01 00:00:00
FILE "02 And With His Stripes We Are Healed (Chorus).wav" WAVE
TRACK 02 AUDIO
TITLE "And With His Stripes We Are Healed (Chorus)"
PERFORMER "Davis"
ISRC USAR28701088
INDEX 01 00:00:00
FILE "03 All We Like Sheep (Chorus).wav" WAVE
TRACK 03 AUDIO
TITLE "All We Like Sheep (Chorus)"
PERFORMER "Davis"
ISRC USAR28701089
INDEX 01 00:00:00
FILE "04 All They That See Him (Recitative-Tenor).wav" WAVE
TRACK 04 AUDIO
TITLE "All They That See Him (Recitative-Tenor)"
PERFORMER "Davis"
ISRC USAR28701090
INDEX 01 00:00:00
FILE "05 He Trusted in God (Chorus).wav" WAVE
TRACK 05 AUDIO
TITLE "He Trusted in God (Chorus)"
PERFORMER "Davis"
ISRC USAR28701091
INDEX 01 00:00:00
TRACK 06 AUDIO
TITLE "Thy Rebuke Hath Broken His Heart (Recitative-Tenor)"
PERFORMER "Davis"
ISRC USAR28701092
INDEX 00 02:16:31
FILE "06 Thy Rebuke Hath Broken His Heart (Recitative-Tenor).wav" WAVE
INDEX 01 00:00:00
FILE "07 Behold and See if there Be Any Sorrow (Air-Tenor).wav" WAVE
TRACK 07 AUDIO
TITLE "Behold and See if there Be Any Sorrow (Air-Tenor)"
PERFORMER "Davis"
ISRC USAR28701093
INDEX 01 00:00:00
FILE "08 He Was Cut Off Out of the Land (Recitative-Soprano II).wav" WAVE
TRACK 08 AUDIO
TITLE "He Was Cut Off Out of the Land (Recitative-Soprano II)"
PERFORMER "Davis"
ISRC USAR28701094
INDEX 01 00:00:00
FILE "09 But Thou Didst Not Leave (Air-Soprano II).wav" WAVE
TRACK 09 AUDIO
TITLE "But Thou Didst Not Leave (Air-Soprano II)"
PERFORMER "Davis"
ISRC USAR28701095
INDEX 01 00:00:00
FILE "10 Lift Up Your Heads (Chorus).wav" WAVE
TRACK 10 AUDIO
TITLE "Lift Up Your Heads (Chorus)"
PERFORMER "Davis"
ISRC USAR28701096
INDEX 01 00:00:00
FILE "11 Unto Which of the Angels (Recitative-Tenor).wav" WAVE
TRACK 11 AUDIO
TITLE "Unto Which of the Angels (Recitative-Tenor)"
PERFORMER "Davis"
ISRC USAR28701097
INDEX 01 00:00:00
FILE "12 Let All the Angels of God Worship Him (Chorus).wav" WAVE
TRACK 12 AUDIO
TITLE "Let All the Angels of God Worship Him (Chorus)"
PERFORMER "Davis"
ISRC USAR28701098
INDEX 01 00:00:00
TRACK 13 AUDIO
TITLE "Thou Art Gone Up On High (Air-Counter-Tenor)"
PERFORMER "Davis"
ISRC USAR28701099
INDEX 00 01:22:08
FILE "13 Thou Art Gone Up On High (Air-Counter-Tenor).wav" WAVE
INDEX 01 00:00:00
FILE "14 The Lord Gave the Word (Chorus).wav" WAVE
TRACK 14 AUDIO
TITLE "The Lord Gave the Word (Chorus)"
PERFORMER "Davis"
ISRC USAR28701100
INDEX 01 00:00:00
TRACK 15 AUDIO
TITLE "How Beautiful Are the Feet (Air-Soprano I)"
PERFORMER "Davis"
ISRC USAR28701101
INDEX 00 01:07:58
FILE "15 How Beautiful Are the Feet (Air-Soprano I).wav" WAVE
INDEX 01 00:00:00
FILE "16 Their Sound is Gone Out (Chorus).wav" WAVE
TRACK 16 AUDIO
TITLE "Their Sound is Gone Out (Chorus)"
PERFORMER "Davis"
ISRC USAR28701102
INDEX 01 00:00:00
FILE "17 Why Do the Nations (Air-Bass).wav" WAVE
TRACK 17 AUDIO
TITLE "Why Do the Nations (Air-Bass)"
PERFORMER "Davis"
ISRC USAR28701103
INDEX 01 00:00:00
FILE "18 Let Us Break their Bonds Asunder (Chorus).wav" WAVE
TRACK 18 AUDIO
TITLE "Let Us Break their Bonds Asunder (Chorus)"
PERFORMER "Davis"
ISRC USAR28701104
INDEX 01 00:00:00
FILE "19 He that Dwelleth in Heaven (Recitative-Tenor).wav" WAVE
TRACK 19 AUDIO
TITLE "He that Dwelleth in Heaven (Recitative-Tenor)"
PERFORMER "Davis"
ISRC USAR28701105
INDEX 01 00:00:00
FILE "20 Thou Shalt Break Them (Air-Tenor).wav" WAVE
TRACK 20 AUDIO
TITLE "Thou Shalt Break Them (Air-Tenor)"
PERFORMER "Davis"
ISRC USAR28701106
INDEX 01 00:00:00
FILE "21 Hallelujah (Chorus).wav" WAVE
TRACK 21 AUDIO
TITLE "Hallelujah (Chorus)"
PERFORMER "Davis"
ISRC USAR28701107
INDEX 01 00:00:00
TRACK 22 AUDIO
TITLE "I Know That My Redeemer Liveth (Air-Soprano I)"
PERFORMER "Davis"
ISRC USAR28701109
INDEX 00 03:48:58
FILE "22 I Know That My Redeemer Liveth (Air-Soprano I).wav" WAVE
INDEX 01 00:00:00
TRACK 23 AUDIO
TITLE "Since By Man Came Death (Chorus)"
PERFORMER "Davis"
ISRC USAR28701110
INDEX 00 06:09:42
FILE "23 Since By Man Came Death (Chorus).wav" WAVE
INDEX 01 00:00:00
FILE "24 Behold I Tell You a Mystery (Recitative-Bass).wav" WAVE
TRACK 24 AUDIO
TITLE "Behold I Tell You a Mystery (Recitative-Bass)"
PERFORMER "Davis"
ISRC USAR28701111
INDEX 01 00:00:00
FILE "25 The Trumpet Shall Sound (Air-Bass).wav" WAVE
TRACK 25 AUDIO
TITLE "The Trumpet Shall Sound (Air-Bass)"
PERFORMER "Davis"
ISRC USAR28701112
INDEX 01 00:00:00
FILE "26 Then Shall Be Brought to Pass (Recitative-Counter-Tenor).wav" WAVE
TRACK 26 AUDIO
TITLE "Then Shall Be Brought to Pass (Recitative-Counter-Tenor)"
PERFORMER "Davis"
ISRC USAR28701113
INDEX 01 00:00:00
FILE "27 O Death Where is thy Sting (Duet-Counter-Tenor, Tenor).wav" WAVE
TRACK 27 AUDIO
TITLE "O Death Where is thy Sting (Duet-Counter-Tenor, Tenor)"
PERFORMER "Davis"
ISRC USAR28701114
INDEX 01 00:00:00
FILE "28 But Thanks Be to God (Chorus).wav" WAVE
TRACK 28 AUDIO
TITLE "But Thanks Be to God (Chorus)"
PERFORMER "Davis"
ISRC USAR28701115
INDEX 01 00:00:00
TRACK 29 AUDIO
TITLE "If God Be For Us (Air-Alto)"
PERFORMER "Davis"
ISRC USAR28701116
INDEX 00 02:03:01
FILE "29 If God Be For Us (Air-Alto).wav" WAVE
INDEX 01 00:00:00
TRACK 30 AUDIO
TITLE "Worty is the Lamb... Amen (Chorus)"
PERFORMER "Davis"
ISRC USAR28701117
INDEX 00 04:55:13
FILE "30 Worty is the Lamb... Amen (Chorus).wav" WAVE
INDEX 01 00:00:00
[teatrix.ru].t7972.torrent 
Торрент: Зарегистрирован [ 2015-10-14 02:42 ] · 626458067C2455BE0A8C6162567011BAD5D2E4A7

Скачать .torrent

Скачать

16 KB

Статус: проверено
Скачан: 0 раз
Размер: 555 MB
terms.php



Быстрый ответ

Имя:

      
Для отправки сообщений необходимо включить JavaScript
Показать сообщения:    

Текущее время: 08-Дек 09:04

Часовой пояс: UTC + 3


Вы можете начинать темы
Вы можете отвечать на сообщения
Вы не можете редактировать свои сообщения
Вы не можете удалять свои сообщения
Вы не можете голосовать в опросах
Вы не можете прикреплять файлы к сообщениям
Вы можете скачивать файлы