(Classical/Choral) Johann Sebastian Bach - Messe in h-moll (Suzanne Danco, Kathleen Ferrier, Peter Pears, Bruce Boyce, Norman Walker - George Enescu) - 1998, FLAC (image+.cue) lossless


Статистика раздачи [Обновить пиров]
Размер:  606 MB   |    Зарегистрирован:  1 год 1 месяц   |    Скачан:  1 раз

Полного источника не было: 2 месяца 11 дней

 
   
 
 
 

[Цитировать]

Johann Sebastian Bach - Messe in h-moll
Жанр: Classical/Choral
Страна-производитель диска: EC
Год издания диска: 1998
Издатель (лейбл): BBC Music
Номер по каталогу: BBCL 4008-7
Дата записи: 17.VII.1951 (studio)
Аудиокодек: FLAC
Тип рипа: image+.cue
Битрейт аудио: lossless
Продолжительность: 2:12'14"
Источник: собственный рип
Наличие сканов в содержимом раздачи: да
Треклист:
CD1:
I. Missa
Kyrie

01. Kyrie Eleison
02. Christe Eleison
03. Kyrie eleison
Gloria
04. Gloria in excelsis
05. Et in terra pax
06. Laudamus te
07. Gratias agimus tibi
08. Domine Deus
09. Qui tollis peccata mundi
10. Qui Sedes Ad Dextram Patris
11. Quoniam tu solus sanctus
12. Cum Sancto Spiritu
CD2:
II Symbolum Nicenum
Credo

01. Credo in unum Deum
02. Patrem omnipotentem
03. Et in unum Dominum
04. Et incarnatus est
05. Cruifixus
06. Et resurrexit
07. Et in Spiritum Sanctum
08. Confiteor
09. Et exspecto resurrectionem
III Sanctus
10. Pleni sunt coeli
IV Osanna, Benedictus, Agnus Dei et Dona nobis pacem
11. Osanna in excelsis
12. Benedictus qui venit
13. Agnus Dei
14. Dona nobis pacem

Исполнители:
Suzanne Danco, soprano
Kathleen Ferrier, contralto
Peter Pears, tenor
Bruce Boyce, baritone
Norman Walker, bass
BBC Chorus
Boyd Neel Orchestra
George Enescu
-

Лог создания рипа - CD1

Exact Audio Copy V1.0 beta 1 from 15. November 2010
EAC extraction logfile from 26. February 2014, 21:37
Johann Sebastian Bach / Mass in B minor (CD1)
Used drive : Optiarc DVD RW AD-7203A Adapter: 4 ID: 1
Read mode : SecureUtilize accurate stream : YesDefeat audio cache : YesMake use of C2 pointers : No
Read offset correction : 48Overread into Lead-In and Lead-Out : NoFill up missing offset samples with silence : YesDelete leading and trailing silent blocks : NoNull samples used in CRC calculations : YesUsed interface : Native Win32 interface for Win NT & 2000
Used output format : User Defined EncoderSelected bitrate : 128 kBit/sQuality : HighAdd ID3 tag : NoCommand line compressor : C:\Program Files\FLAC\flac.exeAdditional command line options : -T "COMMENT=Ripped by GFox" -8 -V %s
TOC of the extracted CD
Track | Start | Length | Start sector | End sector --------------------------------------------------------- 1 | 0:00.00 | 10:59.05 | 0 | 49429 2 | 10:59.05 | 5:46.05 | 49430 | 75384 3 | 16:45.10 | 4:46.72 | 75385 | 96906 4 | 21:32.07 | 2:14.40 | 96907 | 106996 5 | 23:46.47 | 6:17.00 | 106997 | 135271 6 | 30:03.47 | 5:50.30 | 135272 | 161551 7 | 35:54.02 | 3:43.45 | 161552 | 178321 8 | 39:37.47 | 6:39.68 | 178322 | 208314 9 | 46:17.40 | 3:39.30 | 208315 | 224769 10 | 49:56.70 | 5:58.67 | 224770 | 251686 11 | 55:55.62 | 7:21.15 | 251687 | 284776 12 | 63:17.02 | 5:01.65 | 284777 | 307416
Range status and errors
Selected range
Filename D:\EAC\Johann Sebastian Bach - Mass in B minor (CD1).wav
Peak level 98.0 % Extraction speed 0.2 X Range quality 100.0 % Test CRC 6C1B4C57 Copy CRC 6C1B4C57 Copy OK
No errors occurred
AccurateRip summary
Track 1 accurately ripped (confidence 2) [66D07F8F]Track 2 accurately ripped (confidence 2) [481B55BB]Track 3 accurately ripped (confidence 2) [B005B6A5]Track 4 accurately ripped (confidence 2) [DDAD8E9A]Track 5 accurately ripped (confidence 2) [71FDDB68]Track 6 accurately ripped (confidence 2) [F6DAB7F1]Track 7 accurately ripped (confidence 2) [EC541FC1]Track 8 accurately ripped (confidence 2) [E98C022D]Track 9 accurately ripped (confidence 2) [71AAD67D]Track 10 accurately ripped (confidence 1) [2BA1A6CB]Track 11 accurately ripped (confidence 1) [AAC7B0D4]Track 12 accurately ripped (confidence 1) [ADCE8D60]
All tracks accurately ripped
End of status report
==== Log checksum E4DC940ABA5B0DBCCC7D0086D0004D41C03EACF6B17C28DA195768983D32578E ====

Лог создания рипа - CD2

Exact Audio Copy V1.0 beta 1 from 15. November 2010
EAC extraction logfile from 26. February 2014, 22:21
Johann Sebastian Bach / Mass in B minor (CD2)
Used drive : Optiarc DVD RW AD-7203A Adapter: 4 ID: 1
Read mode : SecureUtilize accurate stream : YesDefeat audio cache : YesMake use of C2 pointers : No
Read offset correction : 48Overread into Lead-In and Lead-Out : NoFill up missing offset samples with silence : YesDelete leading and trailing silent blocks : NoNull samples used in CRC calculations : YesUsed interface : Native Win32 interface for Win NT & 2000
Used output format : User Defined EncoderSelected bitrate : 128 kBit/sQuality : HighAdd ID3 tag : NoCommand line compressor : C:\Program Files\FLAC\flac.exeAdditional command line options : -T "COMMENT=Ripped by GFox" -8 -V %s
TOC of the extracted CD
Track | Start | Length | Start sector | End sector --------------------------------------------------------- 1 | 0:00.00 | 2:50.32 | 0 | 12781 2 | 2:50.32 | 2:36.40 | 12782 | 24521 3 | 5:26.72 | 5:24.20 | 24522 | 48841 4 | 10:51.17 | 3:41.70 | 48842 | 65486 5 | 14:33.12 | 4:36.05 | 65487 | 86191 6 | 19:09.17 | 4:59.25 | 86192 | 108641 7 | 24:08.42 | 6:56.08 | 108642 | 139849 8 | 31:04.50 | 5:59.00 | 139850 | 166774 9 | 37:03.50 | 3:04.12 | 166775 | 180586 10 | 40:07.62 | 5:56.53 | 180587 | 207339 11 | 46:04.40 | 3:21.30 | 207340 | 222444 12 | 49:25.70 | 4:42.70 | 222445 | 243664 13 | 54:08.65 | 5:54.15 | 243665 | 270229 14 | 60:03.05 | 3:52.52 | 270230 | 287681
Range status and errors
Selected range
Filename D:\EAC\Johann Sebastian Bach - Mass in B minor (CD2).wav
Peak level 98.0 % Extraction speed 0.1 X Range quality 100.0 % Test CRC 8D4AE062 Copy CRC 8D4AE062 Copy OK
No errors occurred
AccurateRip summary
Track 1 accurately ripped (confidence 2) [4D0F9A81]Track 2 accurately ripped (confidence 2) [3496DEFB]Track 3 accurately ripped (confidence 2) [F3D0742F]Track 4 accurately ripped (confidence 2) [BA55A400]Track 5 accurately ripped (confidence 2) [2DA43703]Track 6 accurately ripped (confidence 2) [E64269A9]Track 7 accurately ripped (confidence 2) [D55CE33C]Track 8 accurately ripped (confidence 2) [6778FCC4]Track 9 accurately ripped (confidence 2) [6772CA36]Track 10 accurately ripped (confidence 2) [67296D86]Track 11 accurately ripped (confidence 2) [4A25C239]Track 12 accurately ripped (confidence 2) [1A982501]Track 13 accurately ripped (confidence 2) [74CFFEEC]Track 14 accurately ripped (confidence 2) [D57096AF]
All tracks accurately ripped
End of status report
==== Log checksum 1DDD22D38D4CC4200F4275312969428256CCD8A18FE3A1441EE6C7B8C9881CE7 ====
-
[teatrix.ru].t7973.torrent 
Торрент: Зарегистрирован [ 2015-10-14 02:42 ] · A0861B3716AD5B4B9FD5CB06825C2F1976CAFFB8

Скачать .torrent

Скачать

13 KB

Статус: проверено
Скачан: 1 раз
Размер: 606 MB
terms.php



Быстрый ответ

Имя:

      
Для отправки сообщений необходимо включить JavaScript
Показать сообщения:    

Текущее время: 10-Дек 02:07

Часовой пояс: UTC + 3


Вы можете начинать темы
Вы можете отвечать на сообщения
Вы не можете редактировать свои сообщения
Вы не можете удалять свои сообщения
Вы не можете голосовать в опросах
Вы не можете прикреплять файлы к сообщениям
Вы можете скачивать файлы