(Classical, Christmas, Sacred) Puer Natus Est: Tudor Music for Advent & Christmas (Tallis, Taverner, Byrd, White, Sheppard) - Stile Antico - 2010, FLAC (tracks+.cue), lossless


 

[Цитировать]

Puer Natus Est: Tudor Music for Advent & Christmas (Tallis, Taverner, Byrd, White, Sheppard) - Stile Antico
Жанр: Classical, Christmas, Sacred
Страна-производитель диска: США
Год издания диска: 2010
Издатель (лейбл): Harmonia Mundi
Номер по каталогу: HMU807517
Аудиокодек: FLAC
Тип рипа: tracks+.cue
Битрейт аудио: lossless
Продолжительность: 78:07
Источник (релизер): Kalinta (what)
Наличие сканов в содержимом раздачи: да
Треклист:
01. Videte miraculum {Thomas Tallis} - 11:39
02. Audivi vocem de caelo {John Taverner} - 4:09
03. Rorate caeli desuper (Gradualia I) {William Byrd} - 4:42
04. Gloria (Missa Puer natus est) {Thomas Tallis} - 9:28
05. Tollite portas (Gradualia I) {William Byrd} - 2:10
06. Sanctus & Benedictus (Missa Puer natus est) {Thomas Tallis} - 8:55
07. Ave Maria (Gradualia I) {William Byrd} - 2:08
08. Agnus Dei (Missa Puer natus est) {Thomas Tallis} - 8:22
09. Ecce virgo concipiet (Gradualia I) {William Byrd} - 2:15
10. Magnificat {Robert White} - 13:51
11. Puer natus est {Plainchant} - 1:11
12. Verbum caro {John Sheppard} - 9:17
Исполнители:
Stile Antico:
Helen Ashby, Kate Ashby, Rebecca Hickey, Katy Hill (#2,4,6,8) - sopranos
Emma Ashby, Eleanor Harries, Carris Jones - altos
Jim Clements, Andrew Griffiths, Benedict Hymas - tenors
James Arthur, Will Dawes - baritones
Oliver Hunt, Matthew O'Donovan - basses
Recorded at All Hallows Church, Gospel Oak, London in January, 2010.

Лог создания рипа

Exact Audio Copy V1.0 beta 3 from 29. August 2011
EAC extraction logfile from 7. November 2011, 19:55
Stile Antico / Puer natus est
Used drive : ASUS DRW-22B2S Adapter: 2 ID: 0
Read mode : SecureUtilize accurate stream : YesDefeat audio cache : YesMake use of C2 pointers : No
Read offset correction : 6Overread into Lead-In and Lead-Out : NoFill up missing offset samples with silence : YesDelete leading and trailing silent blocks : NoNull samples used in CRC calculations : YesUsed interface : Installed external ASPI interfaceGap handling : Appended to previous track
Used output format : User Defined EncoderSelected bitrate : 1024 kBit/sQuality : HighAdd ID3 tag : NoCommand line compressor : C:\Program Files\Exact Audio Copy\Flac\flac.exeAdditional command line options : -8 -V -T "ARTIST=%artist%" -T "TITLE=%title%" -T "ALBUM=%albumtitle%" -T "DATE=%year%" -T "TRACKNUMBER=%tracknr%" -T "TOTALTRACKS=%numtracks%" -T "GENRE=%genre%" -T "ALBUMARTIST=%albumartist%" -T "COMPOSER=%composer%" -T "ALBUMCOMPOSER=%albumcomposer%" -T "ALBUM ARTIST=%albumartist%" -T "COMMENT=EAC Secure Mode, Test & Copy, AccurateRip, FLAC -8" %source%
TOC of the extracted CD
Track | Start | Length | Start sector | End sector --------------------------------------------------------- 1 | 0:00.00 | 11:38.58 | 0 | 52407 2 | 11:38.58 | 4:09.00 | 52408 | 71082 3 | 15:47.58 | 4:41.45 | 71083 | 92202 4 | 20:29.28 | 9:27.59 | 92203 | 134786 5 | 29:57.12 | 2:09.69 | 134787 | 144530 6 | 32:07.06 | 8:54.71 | 144531 | 184651 7 | 41:02.02 | 2:08.05 | 184652 | 194256 8 | 43:10.07 | 8:22.29 | 194257 | 231935 9 | 51:32.36 | 2:15.07 | 231936 | 242067 10 | 53:47.43 | 13:51.11 | 242068 | 304403 11 | 67:38.54 | 1:11.11 | 304404 | 309739 12 | 68:49.65 | 9:16.70 | 309740 | 351509
Track 1
Filename J:\Torrent\stile antico - Puer natus est - Tudor Music for Advent & Christmas (2010) [FLAC]\01 - Videte miraculum.wav
Pre-gap length 0:00:02.00
Peak level 71.7 % Extraction speed 4.2 X Track quality 100.0 % Test CRC A715CFD1 Copy CRC A715CFD1 Accurately ripped (confidence 10) [AA392651] (AR v2) Copy OK
Track 2
Filename J:\Torrent\stile antico - Puer natus est - Tudor Music for Advent & Christmas (2010) [FLAC]\02 - Audivi vocem de caelo.wav
Peak level 77.1 % Extraction speed 3.8 X Track quality 99.9 % Test CRC C84209F5 Copy CRC C84209F5 Accurately ripped (confidence 10) [148D2FF8] (AR v2) Copy OK
Track 3
Filename J:\Torrent\stile antico - Puer natus est - Tudor Music for Advent & Christmas (2010) [FLAC]\03 - Rorate caeli desuper (Gradualia I).wav
Peak level 74.5 % Extraction speed 5.0 X Track quality 100.0 % Test CRC F436F020 Copy CRC F436F020 Accurately ripped (confidence 10) [B71702D2] (AR v2) Copy OK
Track 4
Filename J:\Torrent\stile antico - Puer natus est - Tudor Music for Advent & Christmas (2010) [FLAC]\04 - Gloria (Missa Puer natus est).wav
Peak level 99.5 % Extraction speed 5.7 X Track quality 100.0 % Test CRC 4881FC8E Copy CRC 4881FC8E Accurately ripped (confidence 10) [0ED9494A] (AR v2) Copy OK
Track 5
Filename J:\Torrent\stile antico - Puer natus est - Tudor Music for Advent & Christmas (2010) [FLAC]\05 - Tollite portas (Gradualia I).wav
Peak level 77.1 % Extraction speed 4.2 X Track quality 100.0 % Test CRC 1369A8F7 Copy CRC 1369A8F7 Accurately ripped (confidence 10) [EECD512F] (AR v2) Copy OK
Track 6
Filename J:\Torrent\stile antico - Puer natus est - Tudor Music for Advent & Christmas (2010) [FLAC]\06 - Sanctus & Benedictus (Missa Puer natus est).wav
Peak level 79.7 % Extraction speed 5.8 X Track quality 100.0 % Test CRC 666E1103 Copy CRC 666E1103 Accurately ripped (confidence 10) [2B363C40] (AR v2) Copy OK
Track 7
Filename J:\Torrent\stile antico - Puer natus est - Tudor Music for Advent & Christmas (2010) [FLAC]\07 - Ave Maria (Gradualia I).wav
Peak level 54.1 % Extraction speed 4.8 X Track quality 100.0 % Test CRC 18975311 Copy CRC 18975311 Accurately ripped (confidence 10) [7E44508E] (AR v2) Copy OK
Track 8
Filename J:\Torrent\stile antico - Puer natus est - Tudor Music for Advent & Christmas (2010) [FLAC]\08 - Agnus Dei (Missa Puer natus est).wav
Peak level 72.9 % Extraction speed 5.9 X Track quality 100.0 % Test CRC C33633BD Copy CRC C33633BD Accurately ripped (confidence 10) [EED223C0] (AR v2) Copy OK
Track 9
Filename J:\Torrent\stile antico - Puer natus est - Tudor Music for Advent & Christmas (2010) [FLAC]\09 - Ecce virgo concipiet (Gradualia I).wav
Peak level 49.3 % Extraction speed 3.6 X Track quality 99.9 % Test CRC A7A1E6CA Copy CRC A7A1E6CA Accurately ripped (confidence 10) [AB3BF7D1] (AR v2) Copy OK
Track 10
Filename J:\Torrent\stile antico - Puer natus est - Tudor Music for Advent & Christmas (2010) [FLAC]\10 - Magnificat.wav
Peak level 95.5 % Extraction speed 7.9 X Track quality 100.0 % Test CRC 0453C444 Copy CRC 0453C444 Accurately ripped (confidence 10) [750C2F92] (AR v2) Copy OK
Track 11
Filename J:\Torrent\stile antico - Puer natus est - Tudor Music for Advent & Christmas (2010) [FLAC]\11 - Puer natus est (Plainchant).wav
Peak level 23.5 % Extraction speed 5.4 X Track quality 100.0 % Test CRC F7FE490F Copy CRC F7FE490F Accurately ripped (confidence 10) [05E7DACA] (AR v2) Copy OK
Track 12
Filename J:\Torrent\stile antico - Puer natus est - Tudor Music for Advent & Christmas (2010) [FLAC]\12 - Verbum caro.wav
Peak level 96.7 % Extraction speed 8.3 X Track quality 100.0 % Test CRC ECF21E2A Copy CRC ECF21E2A Accurately ripped (confidence 10) [877A16B6] (AR v2) Copy OK
All tracks accurately ripped
No errors occurred
End of status report
==== Log checksum 39D3A705CCD7495CB751150D155DFE3A4AB3B2F09C349A5DDF9C5AB1DFF4926E ====

Содержание индексной карты (.CUE)

REM GENRE ClassicalREM DATE 2010REM DISCID AA124E0CREM COMMENT "ExactAudioCopy v1.0b3"PERFORMER "Stile Antico"TITLE "Puer Natus Est"FILE "01 - Videte miraculum.wav" WAVE TRACK 01 AUDIO TITLE "Videte miraculum" PERFORMER "Stile Antico" INDEX 01 00:00:00FILE "02 - Audivi vocem de caelo.wav" WAVE TRACK 02 AUDIO TITLE "Audivi vocem de caelo" PERFORMER "Stile Antico" INDEX 01 00:00:00FILE "03 - Rorate caeli desuper (Gradualia I).wav" WAVE TRACK 03 AUDIO TITLE "Rorate caeli desuper (Gradualia I)" PERFORMER "Stile Antico" INDEX 01 00:00:00FILE "04 - Gloria (Missa Puer natus est).wav" WAVE TRACK 04 AUDIO TITLE "Gloria (Missa Puer natus est)" PERFORMER "Stile Antico" INDEX 01 00:00:00FILE "05 - Tollite portas (Gradualia I).wav" WAVE TRACK 05 AUDIO TITLE "Tollite portas (Gradualia I)" PERFORMER "Stile Antico" INDEX 01 00:00:00FILE "06 - Sanctus & Benedictus (Missa Puer natus est).wav" WAVE TRACK 06 AUDIO TITLE "Sanctus & Benedictus (Missa Puer natus est)" PERFORMER "Stile Antico" INDEX 01 00:00:00FILE "07 - Ave Maria (Gradualia I).wav" WAVE TRACK 07 AUDIO TITLE "Ave Maria (Gradualia I)" PERFORMER "Stile Antico" INDEX 01 00:00:00FILE "08 - Agnus Dei (Missa Puer natus est).wav" WAVE TRACK 08 AUDIO TITLE "Agnus Dei (Missa Puer natus est)" PERFORMER "Stile Antico" INDEX 01 00:00:00FILE "09 - Ecce virgo concipiet (Gradualia I).wav" WAVE TRACK 09 AUDIO TITLE "Ecce virgo concipiet (Gradualia I)" PERFORMER "Stile Antico" INDEX 01 00:00:00FILE "10 - Magnificat.wav" WAVE TRACK 10 AUDIO TITLE "Magnificat" PERFORMER "Stile Antico" INDEX 01 00:00:00FILE "11 - Puer natus est.wav" WAVE TRACK 11 AUDIO TITLE "Puer natus est" PERFORMER "Stile Antico" INDEX 01 00:00:00FILE "12 - Verbum caro.wav" WAVE TRACK 12 AUDIO TITLE "Verbum caro" PERFORMER "Stile Antico" INDEX 01 00:00:00

Отчет CUETools

[CUETools log; Date: 04.03.2014 17:34:41; Version: 2.1.4][CTDB TOCID: YgKTEGJ9aNp0gX1EHwttTIrfw6Q-] found.Track | CTDB Status 1 | (16/16) Accurately ripped 2 | (16/16) Accurately ripped 3 | (16/16) Accurately ripped 4 | (16/16) Accurately ripped 5 | (16/16) Accurately ripped 6 | (16/16) Accurately ripped 7 | (16/16) Accurately ripped 8 | (16/16) Accurately ripped 9 | (16/16) Accurately ripped 10 | (16/16) Accurately ripped 11 | (16/16) Accurately ripped 12 | (16/16) Accurately ripped[AccurateRip ID: 00234d6b-0143c18d-aa124e0c] found.Track [ CRC | V2 ] Status 01 [066c4f07|aa392651] (09+33/42) Accurately ripped 02 [d4a9e1a7|148d2ff8] (09+33/42) Accurately ripped 03 [217800df|b71702d2] (09+33/42) Accurately ripped 04 [55f0b996|0ed9494a] (09+33/42) Accurately ripped 05 [23d3f18c|eecd512f] (09+33/42) Accurately ripped 06 [cf0d11f7|2b363c40] (09+33/42) Accurately ripped 07 [a28c5a9b|7e44508e] (09+33/42) Accurately ripped 08 [36a7166e|eed223c0] (09+33/42) Accurately ripped 09 [89bced17|ab3bf7d1] (09+33/42) Accurately ripped 10 [568aebee|750c2f92] (09+33/42) Accurately ripped 11 [d3a8ad22|05e7daca] (09+33/42) Accurately ripped 12 [1e66fad9|877a16b6] (09+34/43) Accurately ripped
Track Peak [ CRC32 ] [W/O NULL] [ LOG ] -- 99,5 [6A805AD5] [FCCD0F43] 01 71,7 [A715CFD1] [0FD85284] CRC32 02 77,1 [C84209F5] [4839070F] CRC32 03 74,5 [F436F020] [7C3DBEF5] CRC32 04 99,5 [4881FC8E] [77AD767D] CRC32 05 77,1 [1369A8F7] [5F2DC70C] CRC32 06 79,7 [666E1103] [DB48E248] CRC32 07 54,1 [18975311] [A842F8B0] CRC32 08 72,9 [C33633BD] [43C82FEA] CRC32 09 49,3 [A7A1E6CA] [E34F9418] CRC32 10 95,5 [0453C444] [E8023A63] CRC32 11 23,5 [F7FE490F] [7B8D514A] CRC32 12 96,7 [ECF21E2A] [8FC49859] CRC32

Review by Stephen Eddins

The British vocal ensemble Stile Antico was established in 2001 and within its first decade has been acknowledged as one of the very finest early music groups, with multiple Grammy nominations, as well as Gramophone and Diapason d'or Awards. This album, Puer natus est: Tudor Music for Advent and Christmas, received a Diapason d'or Award in October 2010. One thing that sets this group apart from similar ensembles is the fact that it works without a conductor, making aesthetic decisions together and listening very, very closely to each for balance and tempos. It's possible to hear the singers' commitment to each other in their attentiveness to the subtlest nuances in dynamics and pacing. Their approach is ideal for this repertoire, English Renaissance polyphony, which demands intense concentration, absolutely secure intonation, and a carefully balanced blend to make its full impact. The centerpiece of the album is Thomas Tallis' incomplete Christmas mass, Missa Puer natus est, of which only three movements were written. The recording opens with Tallis' Advent motet, Videte miraculum, and includes four of William Byrd's settings of the Propers of the Mass, a Magnificat by Robert White, motets by John Tavener and John Sheppard, as well as the plainchant on which Tallis' mass is based. The mass movements are separated by the propers and motets, as would have been done in a liturgical setting. The gain in performance authenticity is tempered by the loss of continuity of hearing the mass as a complete unit. The flow of the selections is pleasant, but this ordering makes it hard to keep track of the unity of Tallis' work. Stile Antico sings with phenomenally pure tone. The women's voices have the chaste clarity associated with boys' voices, but deployed with a technical assurance and musical sensitivity beyond that of most boys. The sound of the ensemble is ravishing in its warmth and the evenness of its blend. The performances are expressive, but never idiosyncratically so; the singers have no interpretive agenda other than letting the composers' voices be heard as beautifully and authentically as possible. The sound of Harmonia Mundi's hybrid SACD is clear, absolutely clean, and suffused with warmth.
[teatrix.ru].t7975.torrent
Торрент: Не зарегистрирован

Скачать .torrent

Скачать

16 KB

Добавлен: 2015-10-14 02:48
Скачано: 0 раз  [ Список скачавших ]
   



Быстрый ответ

Имя:

      
Для отправки сообщений необходимо включить JavaScript
Показать сообщения:    

Текущее время: 07-Дек 13:35

Часовой пояс: UTC + 3


Вы можете начинать темы
Вы можете отвечать на сообщения
Вы не можете редактировать свои сообщения
Вы не можете удалять свои сообщения
Вы не можете голосовать в опросах
Вы не можете прикреплять файлы к сообщениям
Вы можете скачивать файлы