(Classical) Handel - Semele, HWV 58 (J.Nelson, K.Battle, M.Horne) / Гендель – Семела - 1993, FLAC (tracks+.cue) lossless


Статистика раздачи [Обновить пиров]
Размер:  792 MB   |    Зарегистрирован:  1 год 1 месяц   |    Скачан:  0 раз

Полного источника не было: Никогда

 
   
 
 
 

[Цитировать]

Handel - Semele, HWV 58 (J.Nelson, K.Battle, M.Horne)
Жанр: Classical
Год выпуска диска: 1993
Производитель диска: © + ® Deutsche Grammophon
Аудио кодек: FLAC (*.flac)
Тип рипа: tracks+.cue
Битрейт аудио: lossless
Источник: скачано из сети
Продолжительность: CD1:62'08; CD2:45'19; CD3:67'12
Наличие сканов в содержимом раздачи: да
Исполнители:
Semele – Kathleen Battle
Juno/Ino – Marilyn Horne
Cadmus/Somnus – Samuel Ramey
Jupiter – John Aler
Athamas – Michael Chance
Apollo – Neil Mackie
Iris – Sylvia McNair
Priest – Mark S.Doss
English Chamber Orchertra
Conductor – John Nelson

Треклист:

CD1
1. Ouverture – Gavotte
2. Act I. Behold! auspicious flashes rise!
3. Lucky omens bless our rites
4. Daughter, obey, hear and obey!
5. Ah me! What refuge now is left me? - O Jove! in pity teach me which to choose
6. The morning lark to mine accords his note
7. See, she blushing turns her eyes
8. Hymen, haste, thy torch prepare
9. Alas! she yields, and has undone me
10. Why dost thou thus untimely grieve
11. Avert these omens, all ye pow'rs!
12. Again auspicious flashes rise
13. Thy aid, pronubial Juno, Athmans implores!
14. Cease, cease your vows, 'tis impious to proceed
15. O Athmans, what torture hast thou borne!
16. Turn, hopeless lover, turn thy eyes
17. She weeps!
18. Your tuneful voice my tale would tell
19. Too well I see, thou wilt not understand me
20. You've undone me - With my life I would atone
21. Ah, wretched prince, doom'd to disastrous love!
22. Hail Cadmus, hail!
23. Endless pleasure, endless love
CD2
1. Act II. Sinfonia
2. Iris, impatient of thy stay
3. There from mortal cares retiring
4. No more - I'll hear no more! - Awake Saturnia from thy lethargy!
5. Hence, Iris, hence away
6. O sleep, why dost thou leave me?
7. Let me not another moment bear the pangs of absence
8. Lay your doubts and fears aside
9. You are mortal and require time to rest
10. With fond desiring
11. How engaging, how endearing
12. Ah me! - Why sighs my Semele?
13. I must with speed amuse her
14. Now Love that everlasting boy invites
15. By my command
16. Where'er you walk
17. Dear sister, how was your passage hither?
18. But hark! the heav'nly sphere turns round
19. Prepare then, ye immortal choir
20. Bless the glad earth with heav'nly lays
CD3
01. Act III. [Symphony] Larghetto e piano per tutto
02. Somnus, awake, raise thy reclining head!
03. Leave me, loathsome light
04. Dull God, canst thou attend the water's fall
05. More sweet is that name
06. My will obey, she shall be thine
07. Duetto: Obey my will' & 'All I must grant
08. My racking thoughts by no kind slumbers freed
09. Thus shap'd like Ino
10. Behold in this mirror
11. O ecstasy of happiness
12. Myself I shall adore
13. Be wise, as you are beautiful
14. Conjure him by his oath
15. Thus let my thanks be paid
16. Rich odours fill the fragrant air
17. Come to my arms, my lovely fair
18. O Semele! Why art thou thus insensible?; I ever am granting, you always complain
19. Speak, speak your desire
20. By that tremendous flood, I swear
21. You'll grant what I require?'; 'Then cast off this human shape
22. Ah, take heed what you press
23. No, no! I'll take no less
24. Ah! whither is she gone!
25. Above measure is the pleasure, which my revenge supplies
26. Ah me! too late I now repent
27. Of my ill-boding dream
28. Oh, terror and astonishment!
29. How I was hence remov'd
30. Despair no more shall wound me
31. See from above the bellying clouds descend
32. Sinfonia
33. Apollo comes, to relieve your care
34. Happy, happy shall we be

LOG EAC

CD 1

Exact Audio Copy V1.0 beta 3 from 29. August 2011
EAC extraction logfile from 27. February 2013, 20:25
Various Artists / Semele
Used drive : hp CDDVDW SN-208BB Adapter: 1 ID: 0
Read mode : Secure
Utilize accurate stream : Yes
Defeat audio cache : Yes
Make use of C2 pointers : No
Read offset correction : 6
Overread into Lead-In and Lead-Out : No
Fill up missing offset samples with silence : Yes
Delete leading and trailing silent blocks : No
Null samples used in CRC calculations : Yes
Used interface : Native Win32 interface for Win NT & 2000
Gap handling : Appended to previous track
Used output format : User Defined Encoder
Selected bitrate : 896 kBit/s
Quality : High
Add ID3 tag : No
Command line compressor : C:\Program Files\Exact Audio Copy\Flac\flac.exe
Additional command line options : -8 -V -T "ARTIST=%artist%" -T "TITLE=%title%" -T "ALBUM=%albumtitle%" -T "DATE=%year%" -T "TRACKNUMBER=%tracknr%" -T "GENRE=%genre%" -T "PERFORMER=%albuminterpret%" -T "COMPOSER=%composer%" %haslyrics%--tag-from-file=LYRICS="%lyricsfile%"%haslyrics% -T "ALBUMARTIST=%albumartist%" -T "DISCNUMBER=%cdnumber%" -T "TOTALDISCS=%totalcds%" -T "TOTALTRACKS=%numtracks%" -T "COMMENT=%comment%" %source% -o %dest%
TOC of the extracted CD
Track | Start | Length | Start sector | End sector
---------------------------------------------------------
1 | 0:00.33 | 9:03.60 | 33 | 40817
2 | 9:04.18 | 1:26.12 | 40818 | 47279
3 | 10:30.30 | 3:07.60 | 47280 | 61364
4 | 13:38.15 | 0:57.68 | 61365 | 65707
5 | 14:36.08 | 2:43.47 | 65708 | 77979
6 | 17:19.55 | 7:04.60 | 77980 | 109839
7 | 24:24.40 | 0:17.58 | 109840 | 111172
8 | 24:42.23 | 4:38.00 | 111173 | 132022
9 | 29:20.23 | 0:48.35 | 132023 | 135657
10 | 30:08.58 | 2:44.60 | 135658 | 148017
11 | 32:53.43 | 1:59.40 | 148018 | 156982
12 | 34:53.08 | 0:38.57 | 156983 | 159889
13 | 35:31.65 | 0:17.33 | 159890 | 161197
14 | 35:49.23 | 0:36.07 | 161198 | 163904
15 | 36:25.30 | 0:29.48 | 163905 | 166127
16 | 36:55.03 | 8:25.40 | 166128 | 204042
17 | 45:20.43 | 0:24.62 | 204043 | 205904
18 | 45:45.30 | 4:55.45 | 205905 | 228074
19 | 50:41.00 | 0:47.13 | 228075 | 231612
20 | 51:28.13 | 2:28.70 | 231613 | 242782
21 | 53:57.08 | 2:07.00 | 242783 | 252307
22 | 56:04.08 | 1:34.12 | 252308 | 259369
23 | 57:38.20 | 4:30.33 | 259370 | 279652
Track 1
Filename D:\Semele - 1993 [FLAC]\CD1\01 - Semele HWV 58 - Act 1 - Overture.wav
Pre-gap length 0:00:02.44
Peak level 55.2 %
Extraction speed 2.5 X
Track quality 99.9 %
Test CRC B9CA4A53
Copy CRC B9CA4A53
Accurately ripped (confidence 11) [DFCA7D14] (AR v1)
Copy OK
Track 2
Filename D:\Semele - 1993 [FLAC]\CD1\02 - Semele HWV 58 - Act 1 - Behold! auspicious flashes arise.wav
Peak level 48.6 %
Extraction speed 2.3 X
Track quality 100.0 %
Test CRC 233ADFF6
Copy CRC 233ADFF6
Accurately ripped (confidence 11) [000704D6] (AR v1)
Copy OK
Track 3
Filename D:\Semele - 1993 [FLAC]\CD1\03 - Semele HWV 58 - Act 1 - Lucky omens bless our rites.wav
Peak level 97.4 %
Extraction speed 2.8 X
Track quality 100.0 %
Test CRC 7DB810F3
Copy CRC 7DB810F3
Accurately ripped (confidence 11) [4500ECE2] (AR v1)
Copy OK
Track 4
Filename D:\Semele - 1993 [FLAC]\CD1\04 - Semele HWV 58 - Act 1 - Daughter, obey.wav
Peak level 30.1 %
Extraction speed 2.1 X
Track quality 100.0 %
Test CRC 93E2E946
Copy CRC 93E2E946
Accurately ripped (confidence 11) [EE47B86A] (AR v1)
Copy OK
Track 5
Filename D:\Semele - 1993 [FLAC]\CD1\05 - Semele HWV 58 - Act 1 - Ah! me! - O Jove!.wav
Peak level 90.4 %
Extraction speed 2.9 X
Track quality 100.0 %
Test CRC AD653CB2
Copy CRC AD653CB2
Accurately ripped (confidence 11) [1214DE5D] (AR v1)
Copy OK
Track 6
Filename D:\Semele - 1993 [FLAC]\CD1\06 - Semele HWV 58 - Act 1 - The morning lark to mine accords his note.wav
Peak level 93.8 %
Extraction speed 3.6 X
Track quality 100.0 %
Test CRC E6AF8366
Copy CRC E6AF8366
Accurately ripped (confidence 11) [17B5E9DA] (AR v1)
Copy OK
Track 7
Filename D:\Semele - 1993 [FLAC]\CD1\07 - Semele HWV 58 - Act 1 - See she blushing turns her eyes.wav
Peak level 21.6 %
Extraction speed 1.3 X
Track quality 100.0 %
Test CRC BF8F239A
Copy CRC BF8F239A
Accurately ripped (confidence 11) [AA67B040] (AR v1)
Copy OK
Track 8
Filename D:\Semele - 1993 [FLAC]\CD1\08 - Semele HWV 58 - Act 1 - Hymen, haste, thy torch prepare.wav
Peak level 52.7 %
Extraction speed 3.7 X
Track quality 100.0 %
Test CRC B6E39D66
Copy CRC B6E39D66
Accurately ripped (confidence 11) [23F82D46] (AR v1)
Copy OK
Track 9
Filename D:\Semele - 1993 [FLAC]\CD1\09 - Semele HWV 58 - Act 1 - Alas! she yields, and has undone me.wav
Peak level 45.3 %
Extraction speed 1.2 X
Track quality 99.7 %
Test CRC 85D88BF1
Copy CRC 85D88BF1
Accurately ripped (confidence 11) [F1144617] (AR v1)
Copy OK
Track 10
Filename D:\Semele - 1993 [FLAC]\CD1\10 - Semele HWV 58 - Act 1 - Why dost thou thus untimely grieve.wav
Peak level 68.1 %
Extraction speed 3.6 X
Track quality 100.0 %
Test CRC 4E578226
Copy CRC 4E578226
Accurately ripped (confidence 10) [7C1C9E27] (AR v1)
Copy OK
Track 11
Filename D:\Semele - 1993 [FLAC]\CD1\11 - Semele HWV 58 - Act 1 - Avert these omens.wav
Peak level 98.4 %
Extraction speed 2.3 X
Track quality 99.9 %
Test CRC ED53C6A8
Copy CRC ED53C6A8
Accurately ripped (confidence 11) [A3BFAE7C] (AR v1)
Copy OK
Track 12
Filename D:\Semele - 1993 [FLAC]\CD1\12 - Semele HWV 58 - Act 1 - Again auspicious flashes rise.wav
Peak level 64.3 %
Extraction speed 2.3 X
Track quality 100.0 %
Test CRC 7303A146
Copy CRC 7303A146
Accurately ripped (confidence 11) [43DA795F] (AR v1)
Copy OK
Track 13
Filename D:\Semele - 1993 [FLAC]\CD1\13 - Semele HWV 58 - Act 1 - Thy aid, pronubial Juno, Athamas implores!.wav
Peak level 40.2 %
Extraction speed 1.4 X
Track quality 100.0 %
Test CRC 56F53C14
Copy CRC 56F53C14
Accurately ripped (confidence 11) [13DD6A42] (AR v1)
Copy OK
Track 14
Filename D:\Semele - 1993 [FLAC]\CD1\14 - Semele HWV 58 - Act 1 - Cease your vows.wav
Peak level 91.6 %
Extraction speed 2.2 X
Track quality 100.0 %
Test CRC 30DC4205
Copy CRC 30DC4205
Accurately ripped (confidence 11) [4B9BFE93] (AR v1)
Copy OK
Track 15
Filename D:\Semele - 1993 [FLAC]\CD1\15 - Semele HWV 58 - Act 1 - O Athamas, what toture hast thou borne!.wav
Peak level 25.1 %
Extraction speed 2.0 X
Track quality 100.0 %
Test CRC 79B7D163
Copy CRC 79B7D163
Accurately ripped (confidence 11) [C6155B21] (AR v1)
Copy OK
Track 16
Filename D:\Semele - 1993 [FLAC]\CD1\16 - Semele HWV 58 - Act 1 - Turn, hopeless lover, turn thy eyes.wav
Peak level 53.8 %
Extraction speed 4.4 X
Track quality 100.0 %
Test CRC B3A0C360
Copy CRC B3A0C360
Accurately ripped (confidence 11) [3E457260] (AR v1)
Copy OK
Track 17
Filename D:\Semele - 1993 [FLAC]\CD1\17 - Semele HWV 58 - Act 1 - She weeps!.wav
Peak level 12.8 %
Extraction speed 1.9 X
Track quality 100.0 %
Test CRC 5634CD86
Copy CRC 5634CD86
Accurately ripped (confidence 11) [86FF180F] (AR v1)
Copy OK
Track 18
Filename D:\Semele - 1993 [FLAC]\CD1\18 - Semele HWV 58 - Act 1 - Your tuneful voice my tale would tell.wav
Peak level 32.5 %
Extraction speed 4.5 X
Track quality 100.0 %
Test CRC B9FF1A4E
Copy CRC B9FF1A4E
Accurately ripped (confidence 11) [05D82975] (AR v1)
Copy OK
Track 19
Filename D:\Semele - 1993 [FLAC]\CD1\19 - Semele HWV 58 - Act 1 - Too well I see, thou wilt not understand me.wav
Peak level 21.7 %
Extraction speed 2.8 X
Track quality 100.0 %
Test CRC 0867F821
Copy CRC 0867F821
Accurately ripped (confidence 11) [AA016FCE] (AR v1)
Copy OK
Track 20
Filename D:\Semele - 1993 [FLAC]\CD1\20 - Semele HWV 58 - Act 1 - You've undone me , With my life I would atone.wav
Peak level 75.4 %
Extraction speed 4.1 X
Track quality 100.0 %
Test CRC A030EC78
Copy CRC A030EC78
Accurately ripped (confidence 11) [920C295B] (AR v1)
Copy OK
Track 21
Filename D:\Semele - 1993 [FLAC]\CD1\21 - Semele HWV 58 - Act 1 - Ah, wretched prince , Wing'd with our fears ,O prodigy,See, see, Jove's Priests.wav
Peak level 73.5 %
Extraction speed 4.0 X
Track quality 100.0 %
Test CRC 4243D539
Copy CRC 4243D539
Accurately ripped (confidence 11) [0A5B3E20] (AR v1)
Copy OK
Track 22
Filename D:\Semele - 1993 [FLAC]\CD1\22 - Semele HWV 58 - Act 1 - Hail Cadmus!.wav
Peak level 92.2 %
Extraction speed 3.7 X
Track quality 100.0 %
Test CRC 94953AC3
Copy CRC 94953AC3
Accurately ripped (confidence 11) [625C2A6C] (AR v1)
Copy OK
Track 23
Filename D:\Semele - 1993 [FLAC]\CD1\23 - Semele HWV 58 - Act 1 - Endless pleasure....wav
Peak level 98.4 %
Extraction speed 4.8 X
Track quality 100.0 %
Test CRC 49665F1C
Copy CRC 49665F1C
Accurately ripped (confidence 11) [5886E12A] (AR v1)
Copy OK
All tracks accurately ripped
No errors occurred
End of status report
==== Log checksum CCDF8BDB43000E85D24F3B354A42487990B8949D68BCB06C11C2D85669F0E920 ====

CD 2

Exact Audio Copy V1.0 beta 3 from 29. August 2011
EAC extraction logfile from 27. February 2013, 23:32
Various Artists / Semele
Used drive : hp CDDVDW SN-208BB Adapter: 1 ID: 0
Read mode : Secure
Utilize accurate stream : Yes
Defeat audio cache : Yes
Make use of C2 pointers : No
Read offset correction : 6
Overread into Lead-In and Lead-Out : No
Fill up missing offset samples with silence : Yes
Delete leading and trailing silent blocks : No
Null samples used in CRC calculations : Yes
Used interface : Native Win32 interface for Win NT & 2000
Gap handling : Appended to previous track
Used output format : User Defined Encoder
Selected bitrate : 896 kBit/s
Quality : High
Add ID3 tag : No
Command line compressor : C:\Program Files\Exact Audio Copy\Flac\flac.exe
Additional command line options : -8 -V -T "ARTIST=%artist%" -T "TITLE=%title%" -T "ALBUM=%albumtitle%" -T "DATE=%year%" -T "TRACKNUMBER=%tracknr%" -T "GENRE=%genre%" -T "PERFORMER=%albuminterpret%" -T "COMPOSER=%composer%" %haslyrics%--tag-from-file=LYRICS="%lyricsfile%"%haslyrics% -T "ALBUMARTIST=%albumartist%" -T "DISCNUMBER=%cdnumber%" -T "TOTALDISCS=%totalcds%" -T "TOTALTRACKS=%numtracks%" -T "COMMENT=%comment%" %source% -o %dest%
TOC of the extracted CD
Track | Start | Length | Start sector | End sector
---------------------------------------------------------
1 | 0:00.33 | 1:30.40 | 33 | 6822
2 | 1:30.73 | 0:46.02 | 6823 | 10274
3 | 2:17.00 | 3:26.63 | 10275 | 25787
4 | 5:43.63 | 1:55.32 | 25788 | 34444
5 | 7:39.20 | 3:23.28 | 34445 | 49697
6 | 11:02.48 | 3:09.50 | 49698 | 63922
7 | 14:12.23 | 0:16.37 | 63923 | 65159
8 | 14:28.60 | 3:02.20 | 65160 | 78829
9 | 17:31.05 | 0:23.28 | 78830 | 80582
10 | 17:54.33 | 2:53.60 | 80583 | 93617
11 | 20:48.18 | 3:06.25 | 93618 | 107592
12 | 23:54.43 | 1:23.32 | 107593 | 113849
13 | 25:18.00 | 3:44.33 | 113850 | 130682
14 | 29:02.33 | 2:21.22 | 130683 | 141279
15 | 31:23.55 | 1:17.70 | 141280 | 147124
16 | 32:41.50 | 4:53.28 | 147125 | 169127
17 | 37:35.03 | 0:46.12 | 169128 | 172589
18 | 38:21.15 | 2:13.63 | 172590 | 182627
19 | 40:35.03 | 2:01.55 | 182628 | 191757
20 | 42:36.58 | 2:43.05 | 191758 | 203987
Track 1
Filename D:\Semele - 1993 [FLAC]\CD2\01 - Semele HWV 58 - Act 2 - Overture.wav
Pre-gap length 0:00:02.44
Peak level 34.8 %
Extraction speed 0.8 X
Track quality 100.0 %
Test CRC CD0D0401
Copy CRC CD0D0401
Accurately ripped (confidence 11) [809D89F3] (AR v1)
Copy OK
Track 2
Filename D:\Semele - 1993 [FLAC]\CD2\02 - Semele HWV 58 - Act 2 - Iris, impatient of thy stay.wav
Peak level 31.5 %
Extraction speed 0.7 X
Track quality 100.0 %
Test CRC 0B928FC1
Copy CRC 0B928FC1
Accurately ripped (confidence 11) [A51A58E3] (AR v1)
Copy OK
Track 3
Filename D:\Semele - 1993 [FLAC]\CD2\03 - Semele HWV 58 - Act 2 - There from mortal cares retiring.wav
Peak level 75.1 %
Extraction speed 1.0 X
Track quality 99.9 %
Test CRC CF61EA60
Copy CRC CF61EA60
Accurately ripped (confidence 10) [5437E711] (AR v1)
Copy OK
Track 4
Filename D:\Semele - 1993 [FLAC]\CD2\04 - Semele HWV 58 - Act 2 - No more - I'll hear no more! , Awake Saturnia...wav
Peak level 66.7 %
Extraction speed 1.1 X
Track quality 100.0 %
Test CRC 892A48E9
Copy CRC 892A48E9
Accurately ripped (confidence 11) [BECE1B81] (AR v1)
Copy OK
Track 5
Filename D:\Semele - 1993 [FLAC]\CD2\05 - Semele HWV 58 - Act 2 - Hence, Iris, hence away.wav
Peak level 88.5 %
Extraction speed 1.3 X
Track quality 100.0 %
Test CRC 66F7F82F
Copy CRC 66F7F82F
Accurately ripped (confidence 11) [2F08528E] (AR v1)
Copy OK
Track 6
Filename D:\Semele - 1993 [FLAC]\CD2\06 - Semele HWV 58 - Act 2 - Oh sleep, why dost thou leave me.wav
Peak level 58.3 %
Extraction speed 1.3 X
Track quality 100.0 %
Test CRC 4EAF2532
Copy CRC 4EAF2532
Accurately ripped (confidence 11) [9FB6BFD4] (AR v1)
Copy OK
Track 7
Filename D:\Semele - 1993 [FLAC]\CD2\07 - Semele HWV 58 - Act 2 - Let me not another moment.wav
Peak level 42.0 %
Extraction speed 0.4 X
Track quality 100.0 %
Test CRC 8AF5A05C
Copy CRC 8AF5A05C
Accurately ripped (confidence 11) [03AA0EDF] (AR v1)
Copy OK
Track 8
Filename D:\Semele - 1993 [FLAC]\CD2\08 - Semele HWV 58 - Act 2 - Lay your doubts and fears aside.wav
Peak level 52.2 %
Extraction speed 1.2 X
Track quality 99.9 %
Test CRC BE4DD1B9
Copy CRC BE4DD1B9
Accurately ripped (confidence 11) [00351BC4] (AR v1)
Copy OK
Track 9
Filename D:\Semele - 1993 [FLAC]\CD2\09 - Semele HWV 58 - Act 2 - You are mortal and require time to rest.wav
Peak level 23.5 %
Extraction speed 0.6 X
Track quality 100.0 %
Test CRC 23867F61
Copy CRC 23867F61
Accurately ripped (confidence 11) [F713265B] (AR v1)
Copy OK
Track 10
Filename D:\Semele - 1993 [FLAC]\CD2\10 - Semele HWV 58 - Act 2 - With fond desiring.wav
Peak level 75.6 %
Extraction speed 1.4 X
Track quality 100.0 %
Test CRC BCC58347
Copy CRC BCC58347
Accurately ripped (confidence 11) [2FBE22AE] (AR v1)
Copy OK
Track 11
Filename D:\Semele - 1993 [FLAC]\CD2\11 - Semele HWV 58 - Act 2 - How engaging, how endearing.wav
Peak level 91.5 %
Extraction speed 1.5 X
Track quality 100.0 %
Test CRC 82DB5D24
Copy CRC 82DB5D24
Accurately ripped (confidence 11) [E840CD5B] (AR v1)
Copy OK
Track 12
Filename D:\Semele - 1993 [FLAC]\CD2\12 - Semele HWV 58 - Act 2 - Ah me! why sighs my Semele!.wav
Peak level 52.7 %
Extraction speed 1.3 X
Track quality 100.0 %
Test CRC 1A0967F3
Copy CRC 1A0967F3
Accurately ripped (confidence 11) [1854FB12] (AR v1)
Copy OK
Track 13
Filename D:\Semele - 1993 [FLAC]\CD2\13 - Semele HWV 58 - Act 2 - I must with speed amuse her.wav
Peak level 57.9 %
Extraction speed 1.5 X
Track quality 99.9 %
Test CRC 676C7BCD
Copy CRC 676C7BCD
Accurately ripped (confidence 10) [79016A89] (AR v1)
Copy OK
Track 14
Filename D:\Semele - 1993 [FLAC]\CD2\14 - Semele HWV 58 - Act 2 - Now Love that everlasting boy invites.wav
Peak level 89.2 %
Extraction speed 1.6 X
Track quality 100.0 %
Test CRC 845D0EEB
Copy CRC 845D0EEB
Accurately ripped (confidence 10) [113051E6] (AR v1)
Copy OK
Track 15
Filename D:\Semele - 1993 [FLAC]\CD2\15 - Semele HWV 58 - Act 2 - By my command.wav
Peak level 36.1 %
Extraction speed 1.4 X
Track quality 100.0 %
Test CRC 3AC2634A
Copy CRC 3AC2634A
Accurately ripped (confidence 11) [A28FE152] (AR v1)
Copy OK
Track 16
Filename D:\Semele - 1993 [FLAC]\CD2\16 - Semele HWV 58 - Act 2 - Where'er you walk.wav
Peak level 39.7 %
Extraction speed 1.9 X
Track quality 100.0 %
Test CRC B4A35B2D
Copy CRC B4A35B2D
Accurately ripped (confidence 11) [7F20A479] (AR v1)
Copy OK
Track 17
Filename D:\Semele - 1993 [FLAC]\CD2\17 - Semele HWV 58 - Act 2 - Dear Sister.wav
Peak level 34.9 %
Extraction speed 0.8 X
Track quality 99.7 %
Test CRC 97698B35
Copy CRC 97698B35
Accurately ripped (confidence 11) [3321009C] (AR v1)
Copy OK
Track 18
Filename D:\Semele - 1993 [FLAC]\CD2\18 - Semele HWV 58 - Act 2 - But hark! The Heavenly Sphere.wav
Peak level 22.4 %
Extraction speed 1.7 X
Track quality 100.0 %
Test CRC 62D000BF
Copy CRC 62D000BF
Accurately ripped (confidence 10) [E12B03AA] (AR v1)
Copy OK
Track 19
Filename D:\Semele - 1993 [FLAC]\CD2\19 - Semele HWV 58 - Act 2 - Prepare then, ye immortal choir.wav
Peak level 71.5 %
Extraction speed 1.7 X
Track quality 100.0 %
Test CRC 6D6E2E5A
Copy CRC 6D6E2E5A
Accurately ripped (confidence 11) [4063711F] (AR v1)
Copy OK
Track 20
Filename D:\Semele - 1993 [FLAC]\CD2\20 - Semele HWV 58 - Act 2 - Bless the glad earth.wav
Peak level 89.9 %
Extraction speed 1.9 X
Track quality 100.0 %
Test CRC 2751D4B5
Copy CRC 2751D4B5
Accurately ripped (confidence 11) [122BF77D] (AR v1)
Copy OK
All tracks accurately ripped
No errors occurred
End of status report
==== Log checksum 16403C9C43E40EF3F6C8B24EB535151399C2AEF660F26A45F82787FF932FB652 ====

CD 3

Exact Audio Copy V1.0 beta 3 from 29. August 2011
EAC extraction logfile from 28. February 2013, 1:49
Various Artists / Semele
Used drive : hp CDDVDW SN-208BB Adapter: 1 ID: 0
Read mode : Secure
Utilize accurate stream : Yes
Defeat audio cache : Yes
Make use of C2 pointers : No
Read offset correction : 6
Overread into Lead-In and Lead-Out : No
Fill up missing offset samples with silence : Yes
Delete leading and trailing silent blocks : No
Null samples used in CRC calculations : Yes
Used interface : Native Win32 interface for Win NT & 2000
Gap handling : Appended to previous track
Used output format : User Defined Encoder
Selected bitrate : 896 kBit/s
Quality : High
Add ID3 tag : No
Command line compressor : C:\Program Files\Exact Audio Copy\Flac\flac.exe
Additional command line options : -8 -V -T "ARTIST=%artist%" -T "TITLE=%title%" -T "ALBUM=%albumtitle%" -T "DATE=%year%" -T "TRACKNUMBER=%tracknr%" -T "GENRE=%genre%" -T "PERFORMER=%albuminterpret%" -T "COMPOSER=%composer%" %haslyrics%--tag-from-file=LYRICS="%lyricsfile%"%haslyrics% -T "ALBUMARTIST=%albumartist%" -T "DISCNUMBER=%cdnumber%" -T "TOTALDISCS=%totalcds%" -T "TOTALTRACKS=%numtracks%" -T "COMMENT=%comment%" %source% -o %dest%
TOC of the extracted CD
Track | Start | Length | Start sector | End sector
---------------------------------------------------------
1 | 0:00.33 | 1:21.45 | 33 | 6152
2 | 1:22.03 | 0:31.10 | 6153 | 8487
3 | 1:53.13 | 3:07.10 | 8488 | 22522
4 | 5:00.23 | 0:40.10 | 22523 | 25532
5 | 5:40.33 | 2:14.25 | 25533 | 35607
6 | 7:54.58 | 1:22.57 | 35608 | 41814
7 | 9:17.40 | 1:52.60 | 41815 | 50274
8 | 11:10.25 | 2:53.25 | 50275 | 63274
9 | 14:03.50 | 1:13.63 | 63275 | 68812
10 | 15:17.38 | 2:40.37 | 68813 | 80849
11 | 17:58.00 | 0:19.05 | 80850 | 82279
12 | 18:17.05 | 6:39.35 | 82280 | 112239
13 | 24:56.40 | 0:37.15 | 112240 | 115029
14 | 25:33.55 | 1:27.50 | 115030 | 121604
15 | 27:01.30 | 2:13.03 | 121605 | 131582
16 | 29:14.33 | 0:31.65 | 131583 | 133972
17 | 29:46.23 | 2:57.57 | 133973 | 147304
18 | 32:44.05 | 1:42.15 | 147305 | 154969
19 | 34:26.20 | 0:14.70 | 154970 | 156089
20 | 34:41.15 | 0:26.60 | 156090 | 158099
21 | 35:08.00 | 0:33.68 | 158100 | 160642
22 | 35:41.68 | 1:11.10 | 160643 | 165977
23 | 36:53.03 | 5:13.45 | 165978 | 189497
24 | 42:06.48 | 3:01.10 | 189498 | 203082
25 | 45:07.58 | 2:21.60 | 203083 | 213717
26 | 47:29.43 | 3:44.15 | 213718 | 230532
27 | 51:13.58 | 0:21.15 | 230533 | 232122
28 | 51:34.73 | 3:55.42 | 232123 | 249789
29 | 55:30.40 | 0:59.70 | 249790 | 254284
30 | 56:30.35 | 5:03.15 | 254285 | 277024
31 | 61:33.50 | 0:17.23 | 277025 | 278322
32 | 61:50.73 | 1:28.47 | 278323 | 284969
33 | 63:19.45 | 0:56.48 | 284970 | 289217
34 | 64:16.18 | 2:56.15 | 289218 | 302432
Track 1
Filename D:\Semele - 1993 [FLAC]\CD3\01 - Semele HWV 58 - Act 3 - Overture.wav
Pre-gap length 0:00:02.44
Peak level 18.2 %
Extraction speed 0.9 X
Track quality 100.0 %
Test CRC C5CEB3B6
Copy CRC C5CEB3B6
Cannot be verified as accurate (confidence 11) [6A04A9CD], AccurateRip returned [BB7BBB8D] (AR v2)
Copy OK
Track 2
Filename D:\Semele - 1993 [FLAC]\CD3\02 - Semele HWV 58 - Act 3 - Somnus, awake.wav
Peak level 54.8 %
Extraction speed 0.6 X
Track quality 100.0 %
Test CRC 87840657
Copy CRC 87840657
Cannot be verified as accurate (confidence 11) [5C5C6F6C], AccurateRip returned [990547F9] (AR v2)
Copy OK
Track 3
Filename D:\Semele - 1993 [FLAC]\CD3\03 - Semele HWV 58 - Act 3 - Leave me, loathsome light.wav
Peak level 37.1 %
Extraction speed 1.2 X
Track quality 100.0 %
Test CRC 840D7503
Copy CRC 840D7503
Cannot be verified as accurate (confidence 11) [2C5D53ED], AccurateRip returned [71502629] (AR v2)
Copy OK
Track 4
Filename D:\Semele - 1993 [FLAC]\CD3\04 - Semele HWV 58 - Act 3 - Dull God.wav
Peak level 41.1 %
Extraction speed 0.8 X
Track quality 100.0 %
Test CRC 4EB7FA67
Copy CRC 4EB7FA67
Cannot be verified as accurate (confidence 11) [50E86842], AccurateRip returned [C83ABF92] (AR v2)
Copy OK
Track 5
Filename D:\Semele - 1993 [FLAC]\CD3\05 - Semele HWV 58 - Act 3 - More sweet is that name.wav
Peak level 62.1 %
Extraction speed 1.2 X
Track quality 100.0 %
Test CRC 84705E35
Copy CRC 84705E35
Cannot be verified as accurate (confidence 11) [803ECEBB], AccurateRip returned [E60A4251] (AR v2)
Copy OK
Track 6
Filename D:\Semele - 1993 [FLAC]\CD3\06 - Semele HWV 58 - Act 3 - My will obey.wav
Peak level 67.4 %
Extraction speed 1.1 X
Track quality 100.0 %
Test CRC 64DFD8D5
Copy CRC 64DFD8D5
Cannot be verified as accurate (confidence 11) [5A216F8D], AccurateRip returned [7C0C5188] (AR v2)
Copy OK
Track 7
Filename D:\Semele - 1993 [FLAC]\CD3\07 - Semele HWV 58 - Act 3 - Obey my will , All I must grant.wav
Peak level 54.1 %
Extraction speed 1.3 X
Track quality 100.0 %
Test CRC D821951A
Copy CRC D821951A
Cannot be verified as accurate (confidence 11) [3373C9FD], AccurateRip returned [28B899FB] (AR v2)
Copy OK
Track 8
Filename D:\Semele - 1993 [FLAC]\CD3\08 - Semele HWV 58 - Act 3 - My racking thoughts by no kind slumbers freed.wav
Peak level 78.6 %
Extraction speed 1.5 X
Track quality 100.0 %
Test CRC D93FEB83
Copy CRC D93FEB83
Cannot be verified as accurate (confidence 10) [E646B69F], AccurateRip returned [173189C3] (AR v2)
Copy OK
Track 9
Filename D:\Semele - 1993 [FLAC]\CD3\09 - Semele HWV 58 - Act 3 - Thus shap'd like Ino.wav
Peak level 65.4 %
Extraction speed 1.2 X
Track quality 100.0 %
Test CRC 9339E8EB
Copy CRC 9339E8EB
Cannot be verified as accurate (confidence 11) [0A1D4E8E], AccurateRip returned [FFB752F2] (AR v2)
Copy OK
Track 10
Filename D:\Semele - 1993 [FLAC]\CD3\10 - Semele HWV 58 - Act 3 - Behold this mirror.wav
Peak level 96.2 %
Extraction speed 1.5 X
Track quality 100.0 %
Test CRC B4595721
Copy CRC B4595721
Cannot be verified as accurate (confidence 11) [618FB248], AccurateRip returned [A9FE1E34] (AR v2)
Copy OK
Track 11
Filename D:\Semele - 1993 [FLAC]\CD3\11 - Semele HWV 58 - Act 3 - O ecstasy of happiness.wav
Peak level 73.4 %
Extraction speed 0.6 X
Track quality 100.0 %
Test CRC 1FA43437
Copy CRC 1FA43437
Cannot be verified as accurate (confidence 11) [479EEEE0], AccurateRip returned [38D7C502] (AR v2)
Copy OK
Track 12
Filename D:\Semele - 1993 [FLAC]\CD3\12 - Semele HWV 58 - Act 3 - Myself I shall adore.wav
Peak level 98.1 %
Extraction speed 1.8 X
Track quality 100.0 %
Test CRC C80E1185
Copy CRC C80E1185
Cannot be verified as accurate (confidence 11) [7C14B931], AccurateRip returned [5BF12DF2] (AR v2)
Copy OK
Track 13
Filename D:\Semele - 1993 [FLAC]\CD3\13 - Semele HWV 58 - Act 3 - Be wise, as you are beautiful.wav
Peak level 41.2 %
Extraction speed 0.7 X
Track quality 99.7 %
Test CRC E777F81F
Copy CRC E777F81F
Cannot be verified as accurate (confidence 11) [26429A43], AccurateRip returned [6EA29A91] (AR v2)
Copy OK
Track 14
Filename D:\Semele - 1993 [FLAC]\CD3\14 - Semele HWV 58 - Act 3 - Conjure him by his oath.wav
Peak level 73.0 %
Extraction speed 1.4 X
Track quality 100.0 %
Test CRC 717F863E
Copy CRC 717F863E
Cannot be verified as accurate (confidence 11) [90BA1369], AccurateRip returned [E64C567C] (AR v2)
Copy OK
Track 15
Filename D:\Semele - 1993 [FLAC]\CD3\15 - Semele HWV 58 - Act 3 - Thus let my thanks be pay'd.wav
Peak level 90.8 %
Extraction speed 1.7 X
Track quality 100.0 %
Test CRC D9F53B44
Copy CRC D9F53B44
Cannot be verified as accurate (confidence 11) [136A55C6], AccurateRip returned [65EF8403] (AR v2)
Copy OK
Track 16
Filename D:\Semele - 1993 [FLAC]\CD3\16 - Semele HWV 58 - Act 3 - Rich odours fill the fragrant air.wav
Peak level 38.0 %
Extraction speed 0.6 X
Track quality 99.6 %
Test CRC 9A3E1178
Copy CRC 9A3E1178
Cannot be verified as accurate (confidence 10) [4B69E903], AccurateRip returned [C3649C65] (AR v2)
Copy OK
Track 17
Filename D:\Semele - 1993 [FLAC]\CD3\17 - Semele HWV 58 - Act 3 - Come to my arms.wav
Peak level 40.0 %
Extraction speed 1.9 X
Track quality 100.0 %
Test CRC 134051F5
Copy CRC 134051F5
Cannot be verified as accurate (confidence 11) [0D115EFB], AccurateRip returned [E7B4388A] (AR v2)
Copy OK
Track 18
Filename D:\Semele - 1993 [FLAC]\CD3\18 - Semele HWV 58 - Act 3 - O Semele! Why art thou.... , I ever am granting, ...wav
Peak level 88.3 %
Extraction speed 1.6 X
Track quality 100.0 %
Test CRC EB310995
Copy CRC EB310995
Cannot be verified as accurate (confidence 11) [FD63EFB5], AccurateRip returned [37B0BCF9] (AR v2)
Copy OK
Track 19
Filename D:\Semele - 1993 [FLAC]\CD3\19 - Semele HWV 58 - Act 3 - Speak what you desire.wav
Peak level 56.6 %
Extraction speed 0.3 X
Track quality 99.2 %
Test CRC 1B26E8FE
Copy CRC 1B26E8FE
Cannot be verified as accurate (confidence 11) [CB8DA8B7], AccurateRip returned [9AA64EB0] (AR v2)
Copy OK
Track 20
Filename D:\Semele - 1993 [FLAC]\CD3\20 - Semele HWV 58 - Act 3 - By that tremendous flood, I swear.wav
Peak level 44.9 %
Extraction speed 0.9 X
Track quality 100.0 %
Test CRC 757F5499
Copy CRC 757F5499
Cannot be verified as accurate (confidence 11) [CF3BF5F2], AccurateRip returned [BD7D878C] (AR v2)
Copy OK
Track 21
Filename D:\Semele - 1993 [FLAC]\CD3\21 - Semele HWV 58 - Act 3 - You'll grant what I require ,Then cast off this human.wav
Peak level 97.6 %
Extraction speed 1.1 X
Track quality 100.0 %
Test CRC ECE136E2
Copy CRC ECE136E2
Cannot be verified as accurate (confidence 11) [39897D03], AccurateRip returned [FF6371C6] (AR v2)
Copy OK
Track 22
Filename D:\Semele - 1993 [FLAC]\CD3\22 - Semele HWV 58 - Act 3 - Ah, take heed.wav
Peak level 80.2 %
Extraction speed 1.5 X
Track quality 100.0 %
Test CRC ACFD4AA0
Copy CRC ACFD4AA0
Cannot be verified as accurate (confidence 11) [EA815BF2], AccurateRip returned [8D78812D] (AR v2)
Copy OK
Track 23
Filename D:\Semele - 1993 [FLAC]\CD3\23 - Semele HWV 58 - Act 3 - No, no, I'll take no less.wav
Peak level 99.9 %
Extraction speed 2.2 X
Track quality 100.0 %
Test CRC 4EACD1FD
Copy CRC 4EACD1FD
Cannot be verified as accurate (confidence 11) [F9BF50FB], AccurateRip returned [7C474905] (AR v2)
Copy OK
Track 24
Filename D:\Semele - 1993 [FLAC]\CD3\24 - Semele HWV 58 - Act 3 - Ah, whither is she gone.wav
Peak level 92.9 %
Extraction speed 2.0 X
Track quality 100.0 %
Test CRC 6AA489A4
Copy CRC 6AA489A4
Cannot be verified as accurate (confidence 11) [D1176FB0], AccurateRip returned [67D579D4] (AR v2)
Copy OK
Track 25
Filename D:\Semele - 1993 [FLAC]\CD3\25 - Semele HWV 58 - Act 3 - Above measure is the pleasure, which my revenge supplies.wav
Peak level 81.5 %
Extraction speed 2.0 X
Track quality 100.0 %
Test CRC F8A382C0
Copy CRC F8A382C0
Cannot be verified as accurate (confidence 11) [20AE2A70], AccurateRip returned [77477B87] (AR v2)
Copy OK
Track 26
Filename D:\Semele - 1993 [FLAC]\CD3\26 - Semele HWV 58 - Act 3 - Ah me, too late I now repent.wav
Peak level 95.5 %
Extraction speed 2.3 X
Track quality 100.0 %
Test CRC F4C97A3B
Copy CRC F4C97A3B
Cannot be verified as accurate (confidence 11) [878AF394], AccurateRip returned [D41D6439] (AR v2)
Copy OK
Track 27
Filename D:\Semele - 1993 [FLAC]\CD3\27 - Semele HWV 58 - Act 3 - Of my ill-boding dream.wav
Peak level 14.0 %
Extraction speed 0.5 X
Track quality 99.4 %
Test CRC DE2A988B
Copy CRC DE2A988B
Cannot be verified as accurate (confidence 11) [8C4B7191], AccurateRip returned [F9E29E8E] (AR v2)
Copy OK
Track 28
Filename D:\Semele - 1993 [FLAC]\CD3\28 - Semele HWV 58 - Act 3 - Oh, terror and astonishment.wav
Peak level 97.7 %
Extraction speed 2.3 X
Track quality 100.0 %
Test CRC E0A45211
Copy CRC E0A45211
Cannot be verified as accurate (confidence 10) [7CF71D46], AccurateRip returned [03203A4E] (AR v2)
Copy OK
Track 29
Filename D:\Semele - 1993 [FLAC]\CD3\29 - Semele HWV 58 - Act 3 - How I was hence remov'd.wav
Peak level 39.9 %
Extraction speed 1.7 X
Track quality 100.0 %
Test CRC 7716229C
Copy CRC 7716229C
Cannot be verified as accurate (confidence 11) [3D2BFE5D], AccurateRip returned [0CE0B566] (AR v2)
Copy OK
Track 30
Filename D:\Semele - 1993 [FLAC]\CD3\30 - Semele HWV 58 - Act 3 - Despair no more shall wound me.wav
Peak level 68.8 %
Extraction speed 2.5 X
Track quality 100.0 %
Test CRC DABA2F52
Copy CRC DABA2F52
Cannot be verified as accurate (confidence 10) [5B038A64], AccurateRip returned [ACF451B2] (AR v2)
Copy OK
Track 31
Filename D:\Semele - 1993 [FLAC]\CD3\31 - Semele HWV 58 - Act 3 - See from above the belling clouds descend.wav
Peak level 57.3 %
Extraction speed 0.8 X
Track quality 100.0 %
Test CRC D486CA1A
Copy CRC D486CA1A
Cannot be verified as accurate (confidence 11) [48E56695], AccurateRip returned [E645CED2] (AR v2)
Copy OK
Track 32
Filename D:\Semele - 1993 [FLAC]\CD3\32 - Semele HWV 58 - Act 3 - Sinfonia- Apollo come.wav
Peak level 55.1 %
Extraction speed 1.5 X
Track quality 99.8 %
Test CRC C66DB86C
Copy CRC C66DB86C
Cannot be verified as accurate (confidence 10) [06D890AC], AccurateRip returned [46797151] (AR v2)
Copy OK
Track 33
Filename D:\Semele - 1993 [FLAC]\CD3\33 - Semele HWV 58 - Act 3 - Apollo comes, to relieve your care.wav
Peak level 58.7 %
Extraction speed 1.7 X
Track quality 100.0 %
Test CRC FF914B79
Copy CRC FF914B79
Cannot be verified as accurate (confidence 11) [3CE69DC4], AccurateRip returned [DDC6413B] (AR v2)
Copy OK
Track 34
Filename D:\Semele - 1993 [FLAC]\CD3\34 - Semele HWV 58 - Act 3 - Happy shall we be.wav
Peak level 99.6 %
Extraction speed 2.4 X
Track quality 100.0 %
Test CRC A96E1800
Copy CRC A96E1800
Cannot be verified as accurate (confidence 11) [3D7C711E], AccurateRip returned [E3BF273C] (AR v2)
Copy OK
No tracks could be verified as accurate
You may have a different pressing from the one(s) in the database
No errors occurred
End of status report
==== Log checksum A96AA85E899441F66B6F9AF12A15E21DF2BAE6F0E573E36306495A7EFEC55542 ====

(.CUE)

CD 1

REM GENRE Opera
REM DATE 1993
REM DISCID 3D0E9017
REM COMMENT "ExactAudioCopy v1.0b3"
PERFORMER "Various Artists"
TITLE "Semele"
FILE "01 - Semele HWV 58 - Act 1 - Overture.wav" WAVE
TRACK 01 AUDIO
TITLE "Semele HWV 58 - Act 1 - Overture"
PERFORMER "English Chamber Orchestra and John Nelson"
PREGAP 00:00:33
INDEX 01 00:00:00
FILE "02 - Semele HWV 58 - Act 1 - Behold! auspicious flashes arise.wav" WAVE
TRACK 02 AUDIO
TITLE "Semele HWV 58 - Act 1 - Behold! auspicious flashes arise"
PERFORMER "Mark S. Doss, English Chamber Orchestra and John Nelson"
INDEX 01 00:00:00
FILE "03 - Semele HWV 58 - Act 1 - Lucky omens bless our rites.wav" WAVE
TRACK 03 AUDIO
TITLE "Semele HWV 58 - Act 1 - Lucky omens bless our rites"
PERFORMER "Ambrosian Opera Chorus, John McCarthy, English Chamber Orchestra and John Nelson"
INDEX 01 00:00:00
FILE "04 - Semele HWV 58 - Act 1 - Daughter, obey.wav" WAVE
TRACK 04 AUDIO
TITLE "Semele HWV 58 - Act 1 - Daughter, obey"
PERFORMER "Samuel Ramey, Michael Chance, English Chamber Orchestra and John Nelson"
INDEX 01 00:00:00
FILE "05 - Semele HWV 58 - Act 1 - Ah! me! - O Jove!.wav" WAVE
TRACK 05 AUDIO
TITLE "Semele HWV 58 - Act 1 - Ah! me! - O Jove!"
PERFORMER "Kathleen Battle, English Chamber Orchestra and John Nelson"
INDEX 01 00:00:00
FILE "06 - Semele HWV 58 - Act 1 - The morning lark to mine accords his note.wav" WAVE
TRACK 06 AUDIO
TITLE "Semele HWV 58 - Act 1 - The morning lark to mine accords his note"
PERFORMER "Kathleen Battle, English Chamber Orchestra and John Nelson"
INDEX 01 00:00:00
FILE "07 - Semele HWV 58 - Act 1 - See she blushing turns her eyes.wav" WAVE
TRACK 07 AUDIO
TITLE "Semele HWV 58 - Act 1 - See she blushing turns her eyes"
PERFORMER "Michael Chance, English Chamber Orchestra and John Nelson"
INDEX 01 00:00:00
FILE "08 - Semele HWV 58 - Act 1 - Hymen, haste, thy torch prepare.wav" WAVE
TRACK 08 AUDIO
TITLE "Semele HWV 58 - Act 1 - Hymen, haste, thy torch prepare"
PERFORMER "Michael Chance, English Chamber Orchestra and John Nelson"
INDEX 01 00:00:00
FILE "09 - Semele HWV 58 - Act 1 - Alas! she yields, and has undone me.wav" WAVE
TRACK 09 AUDIO
TITLE "Semele HWV 58 - Act 1 - Alas! she yields, and has undone me"
PERFORMER "Michael Chance, Marilyn Horne, Kathleen Battle, English Chamber Orchestra and..."
INDEX 01 00:00:00
FILE "10 - Semele HWV 58 - Act 1 - Why dost thou thus untimely grieve.wav" WAVE
TRACK 10 AUDIO
TITLE "Semele HWV 58 - Act 1 - Why dost thou thus untimely grieve?"
PERFORMER "Michael Chance, Marilyn Horne, Samuel Ramey, Kathleen Battle, English Chamber..."
INDEX 01 00:00:00
FILE "11 - Semele HWV 58 - Act 1 - Avert these omens.wav" WAVE
TRACK 11 AUDIO
TITLE "Semele HWV 58 - Act 1 - Avert these omens"
PERFORMER "Ambrosian Opera Chorus, John McCarthy, English Chamber Orchestra and John Nelson"
INDEX 01 00:00:00
FILE "12 - Semele HWV 58 - Act 1 - Again auspicious flashes rise.wav" WAVE
TRACK 12 AUDIO
TITLE "Semele HWV 58 - Act 1 - Again auspicious flashes rise"
PERFORMER "Samuel Ramey, English Chamber Orchestra and John Nelson"
INDEX 01 00:00:00
FILE "13 - Semele HWV 58 - Act 1 - Thy aid, pronubial Juno, Athamas implores!.wav" WAVE
TRACK 13 AUDIO
TITLE "Semele HWV 58 - Act 1 - Thy aid, pronubial Juno, Athamas implores!"
PERFORMER "Michael Chance, Kathleen Battle, English Chamber Orchestra and John Nelson"
INDEX 01 00:00:00
FILE "14 - Semele HWV 58 - Act 1 - Cease your vows.wav" WAVE
TRACK 14 AUDIO
TITLE "Semele HWV 58 - Act 1 - Cease your vows"
PERFORMER "Ambrosian Opera Chorus, John McCarthy, English Chamber Orchestra and John Nelson"
INDEX 01 00:00:00
FILE "15 - Semele HWV 58 - Act 1 - O Athamas, what toture hast thou borne!.wav" WAVE
TRACK 15 AUDIO
TITLE "Semele HWV 58 - Act 1 - O Athamas, what toture hast thou borne!"
PERFORMER "Michael Chance, English Chamber Orchestra and John Nelson"
INDEX 01 00:00:00
FILE "16 - Semele HWV 58 - Act 1 - Turn, hopeless lover, turn thy eyes.wav" WAVE
TRACK 16 AUDIO
TITLE "Semele HWV 58 - Act 1 - Turn, hopeless lover, turn thy eyes"
PERFORMER "Marilyn Horne, English Chamber Orchestra and John Nelson"
INDEX 01 00:00:00
FILE "17 - Semele HWV 58 - Act 1 - She weeps!.wav" WAVE
TRACK 17 AUDIO
TITLE "Semele HWV 58 - Act 1 - She weeps!"
PERFORMER "Michael Chance, English Chamber Orchestra and John Nelson"
INDEX 01 00:00:00
FILE "18 - Semele HWV 58 - Act 1 - Your tuneful voice my tale would tell.wav" WAVE
TRACK 18 AUDIO
TITLE "Semele HWV 58 - Act 1 - Your tuneful voice my tale would tell"
PERFORMER "Michael Chance, English Chamber Orchestra and John Nelson"
INDEX 01 00:00:00
FILE "19 - Semele HWV 58 - Act 1 - Too well I see, thou wilt not understand me.wav" WAVE
TRACK 19 AUDIO
TITLE "Semele HWV 58 - Act 1 - Too well I see, thou wilt not understand me"
PERFORMER "Michael Chance, Marilyn Horne, English Chamber Orchestra and John Nelson"
INDEX 01 00:00:00
FILE "20 - Semele HWV 58 - Act 1 - You've undone me , With my life I would atone.wav" WAVE
TRACK 20 AUDIO
TITLE "Semele HWV 58 - Act 1 - You've undone me / With my life I would atone"
PERFORMER "Michael Chance, Marilyn Horne, English Chamber Orchestra and John Nelson"
INDEX 01 00:00:00
FILE "21 - Semele HWV 58 - Act 1 - Ah, wretched prince , Wing'd with our fears ,O prodigy,See, see, Jove's Priests.wav" WAVE
TRACK 21 AUDIO
TITLE "Semele HWV 58 - Act 1 - Ah, wretched prince / Wing'd with our fears /O prodig..."
PERFORMER "Michael Chance, Samuel Ramey, Marilyn Horne, English Chamber Orchestra and Jo..."
INDEX 01 00:00:00
FILE "22 - Semele HWV 58 - Act 1 - Hail Cadmus!.wav" WAVE
TRACK 22 AUDIO
TITLE "Semele HWV 58 - Act 1 - Hail Cadmus!"
PERFORMER "Samuel Ramey, Ambrosian Opera Chorus, John McCarthy, English Chamber Orchestr..."
INDEX 01 00:00:00
FILE "23 - Semele HWV 58 - Act 1 - Endless pleasure....wav" WAVE
TRACK 23 AUDIO
TITLE "Semele HWV 58 - Act 1 - Endless pleasure..."
PERFORMER "Kathleen Battle, Ambrosian Opera Chorus, John McCarthy, English Chamber Orche..."
INDEX 01 00:00:00

CD 2

REM GENRE Opera
REM DATE 1993
REM DISCID 0C0A9F14
REM COMMENT "ExactAudioCopy v1.0b3"
PERFORMER "Various Artists"
TITLE "Semele"
FILE "01 - Semele HWV 58 - Act 2 - Overture.wav" WAVE
TRACK 01 AUDIO
TITLE "Semele HWV 58 - Act 2 - Overture"
PERFORMER "English Chamber Orchestra and John Nelson"
PREGAP 00:00:33
INDEX 01 00:00:00
FILE "02 - Semele HWV 58 - Act 2 - Iris, impatient of thy stay.wav" WAVE
TRACK 02 AUDIO
TITLE "Semele HWV 58 - Act 2 - Iris, impatient of thy stay"
PERFORMER "Marilyn Horne, Sylvia McNair, English Chamber Orchestra and John Nelson"
INDEX 01 00:00:00
FILE "03 - Semele HWV 58 - Act 2 - There from mortal cares retiring.wav" WAVE
TRACK 03 AUDIO
TITLE "Semele HWV 58 - Act 2 - There from mortal cares retiring"
PERFORMER "Sylvia McNair, English Chamber Orchestra and John Nelson"
INDEX 01 00:00:00
FILE "04 - Semele HWV 58 - Act 2 - No more - I'll hear no more! , Awake Saturnia...wav" WAVE
TRACK 04 AUDIO
TITLE "Semele HWV 58 - Act 2 - No more - I'll hear no more! / Awake Saturnia.."
PERFORMER "Marilyn Horne, Sylvia McNair, English Chamber Orchestra and John Nelson"
INDEX 01 00:00:00
FILE "05 - Semele HWV 58 - Act 2 - Hence, Iris, hence away.wav" WAVE
TRACK 05 AUDIO
TITLE "Semele HWV 58 - Act 2 - Hence, Iris, hence away"
PERFORMER "Marilyn Horne, English Chamber Orchestra and John Nelson"
INDEX 01 00:00:00
FILE "06 - Semele HWV 58 - Act 2 - Oh sleep, why dost thou leave me.wav" WAVE
TRACK 06 AUDIO
TITLE "Semele HWV 58 - Act 2 - Oh sleep, why dost thou leave me?"
PERFORMER "Kathleen Battle, English Chamber Orchestra and John Nelson"
INDEX 01 00:00:00
FILE "07 - Semele HWV 58 - Act 2 - Let me not another moment.wav" WAVE
TRACK 07 AUDIO
TITLE "Semele HWV 58 - Act 2 - Let me not another moment"
PERFORMER "Kathleen Battle, English Chamber Orchestra and John Nelson"
INDEX 01 00:00:00
FILE "08 - Semele HWV 58 - Act 2 - Lay your doubts and fears aside.wav" WAVE
TRACK 08 AUDIO
TITLE "Semele HWV 58 - Act 2 - Lay your doubts and fears aside"
PERFORMER "John Aler, English Chamber Orchestra and John Nelson"
INDEX 01 00:00:00
FILE "09 - Semele HWV 58 - Act 2 - You are mortal and require time to rest.wav" WAVE
TRACK 09 AUDIO
TITLE "Semele HWV 58 - Act 2 - You are mortal and require time to rest"
PERFORMER "John Aler, English Chamber Orchestra and John Nelson"
INDEX 01 00:00:00
FILE "10 - Semele HWV 58 - Act 2 - With fond desiring.wav" WAVE
TRACK 10 AUDIO
TITLE "Semele HWV 58 - Act 2 - With fond desiring"
PERFORMER "Kathleen Battle, English Chamber Orchestra and John Nelson"
INDEX 01 00:00:00
FILE "11 - Semele HWV 58 - Act 2 - How engaging, how endearing.wav" WAVE
TRACK 11 AUDIO
TITLE "Semele HWV 58 - Act 2 - How engaging, how endearing"
PERFORMER "Ambrosian Opera Chorus, John McCarthy, English Chamber Orchestra and John Nelson"
INDEX 01 00:00:00
FILE "12 - Semele HWV 58 - Act 2 - Ah me! why sighs my Semele!.wav" WAVE
TRACK 12 AUDIO
TITLE "Semele HWV 58 - Act 2 - Ah me! why sighs my Semele!"
PERFORMER "Kathleen Battle, John Aler, English Chamber Orchestra and John Nelson"
INDEX 01 00:00:00
FILE "13 - Semele HWV 58 - Act 2 - I must with speed amuse her.wav" WAVE
TRACK 13 AUDIO
TITLE "Semele HWV 58 - Act 2 - I must with speed amuse her"
PERFORMER "John Aler, English Chamber Orchestra and John Nelson"
INDEX 01 00:00:00
FILE "14 - Semele HWV 58 - Act 2 - Now Love that everlasting boy invites.wav" WAVE
TRACK 14 AUDIO
TITLE "Semele HWV 58 - Act 2 - Now Love that everlasting boy invites"
PERFORMER "Ambrosian Opera Chorus, John McCarthy, English Chamber Orchestra and John Nelson"
INDEX 01 00:00:00
FILE "15 - Semele HWV 58 - Act 2 - By my command.wav" WAVE
TRACK 15 AUDIO
TITLE "Semele HWV 58 - Act 2 - By my command"
PERFORMER "John Aler, Kathleen Battle, English Chamber Orchestra and John Nelson"
INDEX 01 00:00:00
FILE "16 - Semele HWV 58 - Act 2 - Where'er you walk.wav" WAVE
TRACK 16 AUDIO
TITLE "Semele HWV 58 - Act 2 - Where'er you walk"
PERFORMER "John Aler, English Chamber Orchestra and John Nelson"
INDEX 01 00:00:00
FILE "17 - Semele HWV 58 - Act 2 - Dear Sister.wav" WAVE
TRACK 17 AUDIO
TITLE "Semele HWV 58 - Act 2 - Dear Sister"
PERFORMER "Kathleen Battle, Marilyn Horne, English Chamber Orchestra and John Nelson"
INDEX 01 00:00:00
FILE "18 - Semele HWV 58 - Act 2 - But hark! The Heavenly Sphere.wav" WAVE
TRACK 18 AUDIO
TITLE "Semele HWV 58 - Act 2 - But hark! The Heavenly Sphere"
PERFORMER "Marilyn Horne, English Chamber Orchestra and John Nelson"
INDEX 01 00:00:00
FILE "19 - Semele HWV 58 - Act 2 - Prepare then, ye immortal choir.wav" WAVE
TRACK 19 AUDIO
TITLE "Semele HWV 58 - Act 2 - Prepare then, ye immortal choir"
PERFORMER "Marilyn Horne, Kathleen Battle, English Chamber Orchestra and John Nelson"
INDEX 01 00:00:00
FILE "20 - Semele HWV 58 - Act 2 - Bless the glad earth.wav" WAVE
TRACK 20 AUDIO
TITLE "Semele HWV 58 - Act 2 - Bless the glad earth"
PERFORMER "Ambrosian Opera Chorus, John McCarthy, English Chamber Orchestra and John Nelson"
INDEX 01 00:00:00

CD 3

REM GENRE Classical
REM DATE 1993
REM DISCID F50FC022
REM COMMENT "ExactAudioCopy v1.0b3"
PERFORMER "Various Artists"
TITLE "Semele"
FILE "01 - Semele HWV 58 - Act 3 - Overture.wav" WAVE
TRACK 01 AUDIO
TITLE "Semele HWV 58 - Act 3 - Overture"
PERFORMER "English Chamber Orchestra and John Nelson"
PREGAP 00:00:33
INDEX 01 00:00:00
FILE "02 - Semele HWV 58 - Act 3 - Somnus, awake.wav" WAVE
TRACK 02 AUDIO
TITLE "Semele HWV 58 - Act 3 - Somnus, awake"
PERFORMER "Marilyn Horne, Sylvia McNair, English Chamber Orchestra and John Nelson"
INDEX 01 00:00:00
FILE "03 - Semele HWV 58 - Act 3 - Leave me, loathsome light.wav" WAVE
TRACK 03 AUDIO
TITLE "Semele HWV 58 - Act 3 - Leave me, loathsome light"
PERFORMER "Samuel Ramey, English Chamber Orchestra and John Nelson"
INDEX 01 00:00:00
FILE "04 - Semele HWV 58 - Act 3 - Dull God.wav" WAVE
TRACK 04 AUDIO
TITLE "Semele HWV 58 - Act 3 - Dull God"
PERFORMER "Sylvia McNair, Marilyn Horne, English Chamber Orchestra and John Nelson"
INDEX 01 00:00:00
FILE "05 - Semele HWV 58 - Act 3 - More sweet is that name.wav" WAVE
TRACK 05 AUDIO
TITLE "Semele HWV 58 - Act 3 - More sweet is that name"
PERFORMER "Samuel Ramey, English Chamber Orchestra and John Nelson"
INDEX 01 00:00:00
FILE "06 - Semele HWV 58 - Act 3 - My will obey.wav" WAVE
TRACK 06 AUDIO
TITLE "Semele HWV 58 - Act 3 - My will obey"
PERFORMER "Samuel Ramey, Marilyn Horne, English Chamber Orchestra and John Nelson"
INDEX 01 00:00:00
FILE "07 - Semele HWV 58 - Act 3 - Obey my will , All I must grant.wav" WAVE
TRACK 07 AUDIO
TITLE "Semele HWV 58 - Act 3 - Obey my will / All I must grant"
PERFORMER "Samuel Ramey, Marilyn Horne, English Chamber Orchestra and John Nelson"
INDEX 01 00:00:00
FILE "08 - Semele HWV 58 - Act 3 - My racking thoughts by no kind slumbers freed.wav" WAVE
TRACK 08 AUDIO
TITLE "Semele HWV 58 - Act 3 - My racking thoughts by no kind slumbers freed"
PERFORMER "Kathleen Battle, English Chamber Orchestra and John Nelson"
INDEX 01 00:00:00
FILE "09 - Semele HWV 58 - Act 3 - Thus shap'd like Ino.wav" WAVE
TRACK 09 AUDIO
TITLE "Semele HWV 58 - Act 3 - Thus shap'd like Ino"
PERFORMER "Kathleen Battle, Marilyn Horne, English Chamber Orchestra and John Nelson"
INDEX 01 00:00:00
FILE "10 - Semele HWV 58 - Act 3 - Behold this mirror.wav" WAVE
TRACK 10 AUDIO
TITLE "Semele HWV 58 - Act 3 - Behold this mirror"
PERFORMER "Marilyn Horne, English Chamber Orchestra and John Nelson"
INDEX 01 00:00:00
FILE "11 - Semele HWV 58 - Act 3 - O ecstasy of happiness.wav" WAVE
TRACK 11 AUDIO
TITLE "Semele HWV 58 - Act 3 - O ecstasy of happiness"
PERFORMER "Kathleen Battle, English Chamber Orchestra and John Nelson"
INDEX 01 00:00:00
FILE "12 - Semele HWV 58 - Act 3 - Myself I shall adore.wav" WAVE
TRACK 12 AUDIO
TITLE "Semele HWV 58 - Act 3 - Myself I shall adore"
PERFORMER "Kathleen Battle, English Chamber Orchestra and John Nelson"
INDEX 01 00:00:00
FILE "13 - Semele HWV 58 - Act 3 - Be wise, as you are beautiful.wav" WAVE
TRACK 13 AUDIO
TITLE "Semele HWV 58 - Act 3 - Be wise, as you are beautiful"
PERFORMER "Kathleen Battle, Marilyn Horne, English Chamber Orchestra and John Nelson"
INDEX 01 00:00:00
FILE "14 - Semele HWV 58 - Act 3 - Conjure him by his oath.wav" WAVE
TRACK 14 AUDIO
TITLE "Semele HWV 58 - Act 3 - Conjure him by his oath"
PERFORMER "Marilyn Horne, English Chamber Orchestra and John Nelson"
INDEX 01 00:00:00
FILE "15 - Semele HWV 58 - Act 3 - Thus let my thanks be pay'd.wav" WAVE
TRACK 15 AUDIO
TITLE "Semele HWV 58 - Act 3 - Thus let my thanks be pay'd"
PERFORMER "Kathleen Battle, English Chamber Orchestra and John Nelson"
INDEX 01 00:00:00
FILE "16 - Semele HWV 58 - Act 3 - Rich odours fill the fragrant air.wav" WAVE
TRACK 16 AUDIO
TITLE "Semele HWV 58 - Act 3 - Rich odours fill the fragrant air"
PERFORMER "Kathleen Battle, Marilyn Horne, English Chamber Orchestra and John Nelson"
INDEX 01 00:00:00
FILE "17 - Semele HWV 58 - Act 3 - Come to my arms.wav" WAVE
TRACK 17 AUDIO
TITLE "Semele HWV 58 - Act 3 - Come to my arms"
PERFORMER "John Aler, English Chamber Orchestra and John Nelson"
INDEX 01 00:00:00
FILE "18 - Semele HWV 58 - Act 3 - O Semele! Why art thou.... , I ever am granting, ...wav" WAVE
TRACK 18 AUDIO
TITLE "Semele HWV 58 - Act 3 - O Semele! Why art thou....? / I ever am granting, .."
PERFORMER "John Aler, Kathleen Battle, English Chamber Orchestra and John Nelson"
INDEX 01 00:00:00
FILE "19 - Semele HWV 58 - Act 3 - Speak what you desire.wav" WAVE
TRACK 19 AUDIO
TITLE "Semele HWV 58 - Act 3 - Speak what you desire"
PERFORMER "John Aler, Kathleen Battle, English Chamber Orchestra and John Nelson"
INDEX 01 00:00:00
FILE "20 - Semele HWV 58 - Act 3 - By that tremendous flood, I swear.wav" WAVE
TRACK 20 AUDIO
TITLE "Semele HWV 58 - Act 3 - By that tremendous flood, I swear"
PERFORMER "John Aler, English Chamber Orchestra and John Nelson"
INDEX 01 00:00:00
FILE "21 - Semele HWV 58 - Act 3 - You'll grant what I require ,Then cast off this human.wav" WAVE
TRACK 21 AUDIO
TITLE "Semele HWV 58 - Act 3 - You'll grant what I require? /Then cast off this human"
PERFORMER "John Aler, Kathleen Battle, English Chamber Orchestra and John Nelson"
INDEX 01 00:00:00
FILE "22 - Semele HWV 58 - Act 3 - Ah, take heed.wav" WAVE
TRACK 22 AUDIO
TITLE "Semele HWV 58 - Act 3 - Ah, take heed"
PERFORMER "John Aler, English Chamber Orchestra and John Nelson"
INDEX 01 00:00:00
FILE "23 - Semele HWV 58 - Act 3 - No, no, I'll take no less.wav" WAVE
TRACK 23 AUDIO
TITLE "Semele HWV 58 - Act 3 - No, no, I'll take no less"
PERFORMER "Kathleen Battle, English Chamber Orchestra and John Nelson"
INDEX 01 00:00:00
FILE "24 - Semele HWV 58 - Act 3 - Ah, whither is she gone.wav" WAVE
TRACK 24 AUDIO
TITLE "Semele HWV 58 - Act 3 - Ah, whither is she gone?"
PERFORMER "John Aler, English Chamber Orchestra and John Nelson"
INDEX 01 00:00:00
FILE "25 - Semele HWV 58 - Act 3 - Above measure is the pleasure, which my revenge supplies.wav" WAVE
TRACK 25 AUDIO
TITLE "Semele HWV 58 - Act 3 - Above measure is the pleasure, which my revenge supplies"
PERFORMER "Marilyn Horne, English Chamber Orchestra and John Nelson"
INDEX 01 00:00:00
FILE "26 - Semele HWV 58 - Act 3 - Ah me, too late I now repent.wav" WAVE
TRACK 26 AUDIO
TITLE "Semele HWV 58 - Act 3 - Ah me, too late I now repent"
PERFORMER "Kathleen Battle, English Chamber Orchestra and John Nelson"
INDEX 01 00:00:00
FILE "27 - Semele HWV 58 - Act 3 - Of my ill-boding dream.wav" WAVE
TRACK 27 AUDIO
TITLE "Semele HWV 58 - Act 3 - Of my ill-boding dream"
PERFORMER "Marilyn Horne, English Chamber Orchestra and John Nelson"
INDEX 01 00:00:00
FILE "28 - Semele HWV 58 - Act 3 - Oh, terror and astonishment.wav" WAVE
TRACK 28 AUDIO
TITLE "Semele HWV 58 - Act 3 - Oh, terror and astonishment"
PERFORMER "Ambrosian Opera Chorus, John McCarthy, English Chamber Orchestra and John Nelson"
INDEX 01 00:00:00
FILE "29 - Semele HWV 58 - Act 3 - How I was hence remov'd.wav" WAVE
TRACK 29 AUDIO
TITLE "Semele HWV 58 - Act 3 - How I was hence remov'd"
PERFORMER "Marilyn Horne, Samuel Ramey, Michael Chance, English Chamber Orchestra and Jo..."
INDEX 01 00:00:00
FILE "30 - Semele HWV 58 - Act 3 - Despair no more shall wound me.wav" WAVE
TRACK 30 AUDIO
TITLE "Semele HWV 58 - Act 3 - Despair no more shall wound me"
PERFORMER "Michael Chance, English Chamber Orchestra and John Nelson"
INDEX 01 00:00:00
FILE "31 - Semele HWV 58 - Act 3 - See from above the belling clouds descend.wav" WAVE
TRACK 31 AUDIO
TITLE "Semele HWV 58 - Act 3 - See from above the belling clouds descend"
PERFORMER "Samuel Ramey, English Chamber Orchestra and John Nelson"
INDEX 01 00:00:00
FILE "32 - Semele HWV 58 - Act 3 - Sinfonia- Apollo come.wav" WAVE
TRACK 32 AUDIO
TITLE "Semele HWV 58 - Act 3 - Sinfonia: Apollo come"
PERFORMER "English Chamber Orchestra and John Nelson"
INDEX 01 00:00:00
FILE "33 - Semele HWV 58 - Act 3 - Apollo comes, to relieve your care.wav" WAVE
TRACK 33 AUDIO
TITLE "Semele HWV 58 - Act 3 - Apollo comes, to relieve your care"
PERFORMER "Neil Mackie, English Chamber Orchestra and John Nelson"
INDEX 01 00:00:00
FILE "34 - Semele HWV 58 - Act 3 - Happy shall we be.wav" WAVE
TRACK 34 AUDIO
TITLE "Semele HWV 58 - Act 3 - Happy shall we be"
PERFORMER "Ambrosian Opera Chorus, John McCarthy, English Chamber Orchestra and John Nelson"
INDEX 01 00:00:00

auCDtect

CD 1

-----------------------
DON'T MODIFY THIS FILE
-----------------------
PERFORMER: auCDtect Task Manager, ver. 1.5.1RC2 build 1.5.1.3
Copyright (c) 2008-2010 y-soft. All rights reserved
http://y-soft.org
ANALYZER: auCDtect: CD records authenticity detector, version 0.8.2
Copyright (c) 2004 Oleg Berngardt. All rights reserved.
Copyright (c) 2004 Alexander Djourik. All rights reserved.
FILE: 05 - Semele HWV 58 - Act 1 - Ah! me! - O Jove!.flac
Size: 11046679 Hash: 0646562F4E8DEFAD8B826CCC2AFF43D6 Accuracy: -m0
Conclusion: CDDA 100%
Signature: 0C8691B5E1275E70FC7C27D9DE6DD74718325D13
FILE: 04 - Semele HWV 58 - Act 1 - Daughter, obey.flac
Size: 4454620 Hash: 6E8374237311EF8097E1E962E6AD1A21 Accuracy: -m0
Conclusion: CDDA 100%
Signature: 7271FCFDC38B71FB8C245DE4D12FC7302D3D9B29
FILE: 03 - Semele HWV 58 - Act 1 - Lucky omens bless our rites.flac
Size: 16813330 Hash: 67D003874FA9BB2AC64581FBB62F508B Accuracy: -m0
Conclusion: CDDA 100%
Signature: 8B26603393FB6EE93DA478360111BF1FBDAA1568
FILE: 02 - Semele HWV 58 - Act 1 - Behold! auspicious flashes arise.flac
Size: 5516814 Hash: B3DA757F1E69EC5DAE817E6952B103D6 Accuracy: -m0
Conclusion: CDDA 100%
Signature: EB74A15CADD2DC23CE280B1EEAE18BB158A0AD8A
FILE: 01 - Semele HWV 58 - Act 1 - Overture.flac
Size: 42640982 Hash: 32146CD757499B42AD6B9AEADF57BB56 Accuracy: -m0
Conclusion: CDDA 100%
Signature: C5976039BC20E1793399523D119CAA5E28ACA456
FILE: 23 - Semele HWV 58 - Act 1 - Endless pleasure....flac
Size: 22915048 Hash: 249339395EC5C2B0872E0F52ACBBED71 Accuracy: -m0
Conclusion: CDDA 99%
Signature: C004C7B0528865F0FEBB0FEE6DB07DFC944FE9D6
FILE: 22 - Semele HWV 58 - Act 1 - Hail Cadmus!.flac
Size: 8475049 Hash: 8D2782499D9D6149C7C44C32A8324781 Accuracy: -m0
Conclusion: CDDA 100%
Signature: B5E09FFFED4D7FE960037A63C804EC4E7C388BAA
FILE: 21 - Semele HWV 58 - Act 1 - Ah, wretched prince , Wing'd with our fears ,O prodigy,See, see, Jove's Priests.flac
Size: 9715701 Hash: FCA6FBA6133E3C9B786FAC3CB74E935D Accuracy: -m0
Conclusion: CDDA 100%
Signature: B1955774D3C9847852B7911F6730A6E672E28A23
FILE: 20 - Semele HWV 58 - Act 1 - You've undone me , With my life I would atone.flac
Size: 12896704 Hash: C1D7916461B92CB15F074F0468D1DCF3 Accuracy: -m0
Conclusion: CDDA 100%
Signature: 5F8DC6C980D4B7B71E6597E69830A60E1BC92D78
FILE: 19 - Semele HWV 58 - Act 1 - Too well I see, thou wilt not understand me.flac
Size: 3052884 Hash: B662E9B72B7B76EFAFD24D07879E99CD Accuracy: -m0
Conclusion: CDDA 100%
Signature: 6D070D16F8BF97AEA1AFEDC6DA6E653B0A642F8E
FILE: 18 - Semele HWV 58 - Act 1 - Your tuneful voice my tale would tell.flac
Size: 19884407 Hash: 436CF32A57728518C238C1E091B605FB Accuracy: -m0
Conclusion: CDDA 100%
Signature: 5076EB5CCBC53FC2454F5B9C55E1920A6724AC5E
FILE: 17 - Semele HWV 58 - Act 1 - She weeps!.flac
Size: 1294773 Hash: 5BC03CB32E7C5490B96D9C239ED98F5D Accuracy: -m0
Conclusion: CDDA 99%
Signature: 8244A6D397890066AD8F6EB29A324F270B642F52
FILE: 16 - Semele HWV 58 - Act 1 - Turn, hopeless lover, turn thy eyes.flac
Size: 27841388 Hash: 8DDCC74A7F9FE1F4509E69ED81701E6B Accuracy: -m0
Conclusion: CDDA 100%
Signature: FD714CEF7D4031A595CDBFAA3FB2BA93831970F4
FILE: 15 - Semele HWV 58 - Act 1 - O Athamas, what toture hast thou borne!.flac
Size: 1797562 Hash: 69597ECA68428FF6AB9A5B6DEEF9351A Accuracy: -m0
Conclusion: CDDA 100%
Signature: 6ED619AB94121FE1577FD13ACE5689DCC8D7CA2A
FILE: 14 - Semele HWV 58 - Act 1 - Cease your vows.flac
Size: 3322949 Hash: D87827A9A90289DCEB72083E18064019 Accuracy: -m0
Conclusion: CDDA 100%
Signature: 02749A11B98AB0679BB16F8038B7D3FDC03BC81F
FILE: 13 - Semele HWV 58 - Act 1 - Thy aid, pronubial Juno, Athamas implores!.flac
Size: 1162978 Hash: C1445DD7177BFBC796809ABBC31CA193 Accuracy: -m0
Conclusion: CDDA 100%
Signature: 35D01E4E149E87FE0605C060A342A64BA91AB4A1
FILE: 12 - Semele HWV 58 - Act 1 - Again auspicious flashes rise.flac
Size: 2910593 Hash: AC07C9F4A2AE3FD9FEA2FD8DAB8D0863 Accuracy: -m0
Conclusion: CDDA 100%
Signature: FEC1196144B7E75AB1AD0CAF3CE115AF1BF8FDE9
FILE: 11 - Semele HWV 58 - Act 1 - Avert these omens.flac
Size: 11566207 Hash: 3A11EF0CF6F87222A55C32ED738DACC1 Accuracy: -m0
Conclusion: CDDA 100%
Signature: 5E8BEC30921014D4BD84F8876DF48EB6C72522CA
FILE: 10 - Semele HWV 58 - Act 1 - Why dost thou thus untimely grieve.flac
Size: 13366229 Hash: 5A0305E4D63ABCF6FB4DCCB61F01D124 Accuracy: -m0
Conclusion: CDDA 100%
Signature: 0B26F2F0F65786D267815C045423B4C88E43457E
FILE: 09 - Semele HWV 58 - Act 1 - Alas! she yields, and has undone me.flac
Size: 3226536 Hash: 21E12CFAD59F757147695D287E49B5C2 Accuracy: -m0
Conclusion: CDDA 100%
Signature: 50DE0864F8C389657AE3867B9EBFFC6C93045834
FILE: 08 - Semele HWV 58 - Act 1 - Hymen, haste, thy torch prepare.flac
Size: 22340066 Hash: 23280DA19F2E5FE3A922144D6E4F7A5A Accuracy: -m0
Conclusion: CDDA 100%
Signature: BC0860192EA461CD7E436E0741176B9A96999A80
FILE: 07 - Semele HWV 58 - Act 1 - See she blushing turns her eyes.flac
Size: 1240863 Hash: 2D9F0CB56D198DDE4449658E3D9CF046 Accuracy: -m0
Conclusion: CDDA 100%
Signature: AD67564AE5BA2057FC6E485C70D493DCCF85C30F
FILE: 06 - Semele HWV 58 - Act 1 - The morning lark to mine accords his note.flac
Size: 34005131 Hash: 8EF4389CCB3E2E0500AFDFAEB6D6D279 Accuracy: -m0
Conclusion: CDDA 99%
Signature: 23EB167F70334F8C0D4D84B7773B2439E8BDE80D

CD 2

-----------------------
DON'T MODIFY THIS FILE
-----------------------
PERFORMER: auCDtect Task Manager, ver. 1.5.1RC2 build 1.5.1.3
Copyright (c) 2008-2010 y-soft. All rights reserved
http://y-soft.org
ANALYZER: auCDtect: CD records authenticity detector, version 0.8.2
Copyright (c) 2004 Oleg Berngardt. All rights reserved.
Copyright (c) 2004 Alexander Djourik. All rights reserved.
FILE: 20 - Semele HWV 58 - Act 2 - Bless the glad earth.flac
Size: 13516640 Hash: 5D5A094087C17D44E058E39AE1B5812B Accuracy: -m0
Conclusion: CDDA 100%
Signature: C300A156316770BC5E8FAE23C1FBC02A088C1452
FILE: 19 - Semele HWV 58 - Act 2 - Prepare then, ye immortal choir.flac
Size: 9468673 Hash: A7BCAE9D7906D2CA300CF11ACC189682 Accuracy: -m0
Conclusion: CDDA 100%
Signature: AF5BB647CCDA2BE2FC6D0509DF2BAE042594917B
FILE: 18 - Semele HWV 58 - Act 2 - But hark! The Heavenly Sphere.flac
Size: 8081409 Hash: 7F96068784683D626FE8E732D2460297 Accuracy: -m0
Conclusion: CDDA 100%
Signature: 985ED613989EB04BADDFC215A615D3ADF1A9518C
FILE: 17 - Semele HWV 58 - Act 2 - Dear Sister.flac
Size: 3177005 Hash: D0ED4C28B2FDF3A68CEDC7BBDD17D9ED Accuracy: -m0
Conclusion: CDDA 99%
Signature: C55214D864D138F93836ED9C964916A9E6C74C31
FILE: 16 - Semele HWV 58 - Act 2 - Where'er you walk.flac
Size: 20151973 Hash: 8EE11550B2D0F968F07DB81C32771A11 Accuracy: -m0
Conclusion: CDDA 100%
Signature: A0B862D4CAC28F1814342835D299F881DA43F4F0
FILE: 15 - Semele HWV 58 - Act 2 - By my command.flac
Size: 5032274 Hash: F1A23667459B6EDB51B32BDCEE285E93 Accuracy: -m0
Conclusion: CDDA 100%
Signature: A466C06CF240ACD4C3BB889C1A55CC79B57D1520
FILE: 14 - Semele HWV 58 - Act 2 - Now Love that everlasting boy invites.flac
Size: 12685714 Hash: E100925A6612DDF018F7A4D19E54E06D Accuracy: -m0
Conclusion: CDDA 99%
Signature: F9AB3055150671F3205B63092C38BBE023DBED2C
FILE: 13 - Semele HWV 58 - Act 2 - I must with speed amuse her.flac
Size: 18366733 Hash: 1EB9B9131E4FD9306FDA5DD46B1FF125 Accuracy: -m0
Conclusion: CDDA 99%
Signature: B79DA5BB280F81C7F4974189298E7A7EFD15E243
FILE: 12 - Semele HWV 58 - Act 2 - Ah me! why sighs my Semele!.flac
Size: 5348835 Hash: F5D791EE8C52BF7D66EF84F03784D1C5 Accuracy: -m0
Conclusion: CDDA 100%
Signature: D2506DE7259235D7B2AD8EE0C2522E1F1767FEFE
FILE: 11 - Semele HWV 58 - Act 2 - How engaging, how endearing.flac
Size: 14857341 Hash: B5ACD94DF36E62BEBA40D2F376A6D7F0 Accuracy: -m0
Conclusion: CDDA 100%
Signature: 5A2BEFE1C2E55859810E1D53E4E02D86A23F21E7
FILE: 10 - Semele HWV 58 - Act 2 - With fond desiring.flac
Size: 12903368 Hash: A705E7BF696A6E0B8AB5772E2158A621 Accuracy: -m0
Conclusion: CDDA 100%
Signature: 0AE5DBFB39F2CA6DE51F5FA46BA01737E989FC71
FILE: 09 - Semele HWV 58 - Act 2 - You are mortal and require time to rest.flac
Size: 1412441 Hash: 714BF0D75B1243FB00573D266938FB04 Accuracy: -m0
Conclusion: CDDA 99%
Signature: 726176913C6F5EE8E28C3A8C0B91FFD380F485B6
FILE: 08 - Semele HWV 58 - Act 2 - Lay your doubts and fears aside.flac
Size: 14327059 Hash: 8B52549CD80A88B8D504842D7045C527 Accuracy: -m0
Conclusion: CDDA 100%
Signature: 3D4006DF9FB529F8D246572E57C01DB3C8F0B9F9
FILE: 07 - Semele HWV 58 - Act 2 - Let me not another moment.flac
Size: 1129509 Hash: CB864348B45A7CD51C48D6C775DBCEB9 Accuracy: -m0
Conclusion: CDDA 99%
Signature: EC3DE3D4EF89A6584C69A27A29A118D483C5564B
FILE: 06 - Semele HWV 58 - Act 2 - Oh sleep, why dost thou leave me.flac
Size: 10179659 Hash: 15DCE9B124796FD9C1CA2B71E0AAD732 Accuracy: -m0
Conclusion: CDDA 100%
Signature: 877C3C2F1BE003BF9DBD5C9F054DB889D1F165A5
FILE: 05 - Semele HWV 58 - Act 2 - Hence, Iris, hence away.flac
Size: 15815343 Hash: 0FF5BA22248A4B3F1192A969B65B82DD Accuracy: -m0
Conclusion: CDDA 100%
Signature: B01839F8D5A236DBF21F8A66C2ACA6ED3FDBAE04
FILE: 04 - Semele HWV 58 - Act 2 - No more - I'll hear no more! , Awake Saturnia...flac
Size: 9125217 Hash: FF40ACB5EA22E59C4B8A3689E45AC3F1 Accuracy: -m0
Conclusion: CDDA 100%
Signature: 9B18E2ECCE1BF3E8AC9575B72636E449F38CFAAD
FILE: 03 - Semele HWV 58 - Act 2 - There from mortal cares retiring.flac
Size: 15601247 Hash: 288D4154FBA26B32201E134C3FA1A7E2 Accuracy: -m0
Conclusion: CDDA 100%
Signature: 5626A026FCF08B1777BE3D345349505CA81A4575
FILE: 02 - Semele HWV 58 - Act 2 - Iris, impatient of thy stay.flac
Size: 3340133 Hash: BDE08CF178C13757C2BC3899C3907BA9 Accuracy: -m0
Conclusion: CDDA 100%
Signature: 30C7AB736BA14D7AEEDA3ADB61823D69E1D0930E
FILE: 01 - Semele HWV 58 - Act 2 - Overture.flac
Size: 7149228 Hash: 77F145E23228F68CA9A62BBA64E0B474 Accuracy: -m0
Conclusion: CDDA 100%
Signature: 87E0A191A4B013620E0D811E9281CE3926BB5827

CD 3

-----------------------
DON'T MODIFY THIS FILE
-----------------------
PERFORMER: auCDtect Task Manager, ver. 1.5.1RC2 build 1.5.1.3
Copyright (c) 2008-2010 y-soft. All rights reserved
http://y-soft.org
ANALYZER: auCDtect: CD records authenticity detector, version 0.8.2
Copyright (c) 2004 Oleg Berngardt. All rights reserved.
Copyright (c) 2004 Alexander Djourik. All rights reserved.
FILE: 34 - Semele HWV 58 - Act 3 - Happy shall we be.flac
Size: 16010447 Hash: 8D8C5BA25ED37E94F119BD79D2E6CEA1 Accuracy: -m0
Conclusion: CDDA 100%
Signature: 63A6C12C5E33F41135537E6E84921850205208E2
FILE: 33 - Semele HWV 58 - Act 3 - Apollo comes, to relieve your care.flac
Size: 3816852 Hash: FC2704CD56D15099B59BCB8EC130BA19 Accuracy: -m0
Conclusion: CDDA 99%
Signature: 44F57B703E045E84BF589ED9576BB4C25F298456
FILE: 32 - Semele HWV 58 - Act 3 - Sinfonia- Apollo come.flac
Size: 7388690 Hash: 5A64737538C9F73F8ABEE515FEDDC07F Accuracy: -m0
Conclusion: CDDA 100%
Signature: FB49DE6C1CFD474966546BDD40A153CC3F24DD35
FILE: 31 - Semele HWV 58 - Act 3 - See from above the belling clouds descend.flac
Size: 1278713 Hash: 30CE49FFDF5A21E36F34A658A50B3FCE Accuracy: -m0
Conclusion: CDDA 100%
Signature: 6381496F88E1375CAB562815E4DDFCA1A5C85B8A
FILE: 30 - Semele HWV 58 - Act 3 - Despair no more shall wound me.flac
Size: 24233400 Hash: EAA04FD7397C763AB67067FFF501586A Accuracy: -m0
Conclusion: CDDA 100%
Signature: EF0200BEA39B53F7B11BE1C42E9B5F54E2FEF2CA
FILE: 29 - Semele HWV 58 - Act 3 - How I was hence remov'd.flac
Size: 3784809 Hash: 9C51A0172605492FA878C6336646D2A2 Accuracy: -m0
Conclusion: CDDA 100%
Signature: 0332290A364ED6A2001BEB5E558B4895F4B7DA5A
FILE: 28 - Semele HWV 58 - Act 3 - Oh, terror and astonishment.flac
Size: 17066049 Hash: 58AF849C7B8412C54E9AF6C4E83CE622 Accuracy: -m0
Conclusion: CDDA 100%
Signature: A3F814D8A5FDF19DA704C342BF22048AE1
[teatrix.ru].t7976.torrent 
Торрент: Зарегистрирован [ 2015-10-14 02:49 ] · 5D8E7C804963F3F931DE96120C4502699F5FB4A7

Скачать .torrent

Скачать

25 KB

Статус: проверено
Скачан: 0 раз
Размер: 792 MB
terms.php



Быстрый ответ

Имя:

      
Для отправки сообщений необходимо включить JavaScript
Показать сообщения:    

Текущее время: 03-Дек 16:46

Часовой пояс: UTC + 3


Вы можете начинать темы
Вы можете отвечать на сообщения
Вы не можете редактировать свои сообщения
Вы не можете удалять свои сообщения
Вы не можете голосовать в опросах
Вы не можете прикреплять файлы к сообщениям
Вы можете скачивать файлы