(Classical, Christmas, Sacred) The Christmas Story (Tomasi, Grandi, Byrd, Anerio, Hopkins, Eccard, Gade) - Theatre of Voices, Ars Nova Copenhagen, Paul Hillier - 2011, FLAC (tracks+.cue), lossless


Статистика раздачи [Обновить пиров]
Размер:  257 MB   |    Зарегистрирован:  1 год 1 месяц   |    Скачан:  0 раз

Полного источника не было: Никогда

 
   
 
 
 

[Цитировать]

The Christmas Story (Tomasi, Grandi, Byrd, Anerio, Hopkins, Eccard, Gade) - Theatre of Voices, Ars Nova Copenhagen, Paul Hillier
Жанр: Classical, Christmas, Sacred
Страна-производитель диска: США
Год издания диска: 2011
Издатель (лейбл): Harmonia Mundi
Номер по каталогу: HMU 807565
Аудиокодек: FLAC
Тип рипа: tracks+.cue
Битрейт аудио: lossless
Продолжительность: 65:18
Источник (релизер): LovelyWhore13 (what)
Наличие сканов в содержимом раздачи: да
Треклист:
01. Rorate coeli desuper {Plainchant} - 2:31
02. Veni veni Emanuel {arr. Paul Hillier} - 3:19
03. Es ist ein Ros entsprungen {arr. Paul Hillier} - 3:26
04. Dum deambularet Dominus in Paradisum {Biasio Tomasi} - 4:54
05. Adam lay y-bounden {Howard Tomasi} - 1:36
06. In dulci iubilo {arr. R. L. Pearsall} - 3:20
07. Missus est Gabriel {Alessandro Grandi} - 7:27
08. Puer natus est {Plainchant} - 3:03
09. O magnum mysterium {William Byrd} - 3:06
10. Voi ch'ai notturni rai {Giovanni Francesco Anerio} - 6:10
11. Dormi, dormi, o bel bambin {arr. Paul Hillier} - 2:01
12. Liebe Hirten {arr. Paul Hillier} - 1:36
13. Andachtsjodler {arr. Paul Hillier} - 2:26
14. We three kings {J.H. Hopkins} - 3:55
15. Videntes stellam {Plainchant} - 0:33
16. Personent hodie {arr. Paul Hillier} - 1:51
17. Herodes iratus {Plainchant} - 0:37
18. Vox in Rama {Plainchant} - 1:11
19. Uebers Gebirg {Johann Eccard} - 2:47
20. Maria wallt zum Heiligtum {Johann Eccard} - 3:12
21. The holly and the ivy {arr. Paul Hillier} - 2:47
22. Barn Jesus i en krybbe la {Niels W. Gade} - 1:56
23. We wish you a merry Christmas {arr. Paul Hillier} - 1:34
Исполнители:
Theatre of Voices (#4,7,10,14)
Ars Nova Copenhagen (#1-3,5,6,8,9,11-13,15-23)
Paul Hillier - artistic director

Лог создания рипа

Exact Audio Copy V1.0 beta 3 from 29. August 2011
EAC extraction logfile from 24. November 2013, 15:22
Paul Hillier / The Christmas Story
Used drive : HL-DT-STDVDRAM GT32N Adapter: 0 ID: 1
Read mode : SecureUtilize accurate stream : YesDefeat audio cache : YesMake use of C2 pointers : No
Read offset correction : 103Overread into Lead-In and Lead-Out : NoFill up missing offset samples with silence : YesDelete leading and trailing silent blocks : NoNull samples used in CRC calculations : YesUsed interface : Native Win32 interface for Win NT & 2000Gap handling : Appended to previous track
Used output format : User Defined EncoderSelected bitrate : 768 kBit/sQuality : HighAdd ID3 tag : NoCommand line compressor : C:\Program Files (x86)\Exact Audio Copy\FLAC\FLAC.EXEAdditional command line options : -8 -V -T "ARTIST=%artist%" -T "TITLE=%title%" -T "ALBUM=%albumtitle%" -T "DATE=%year%" -T "TRACKNUMBER=%tracknr%" -T "GENRE=%genre%" -T "PERFORMER=%albuminterpret%" -T "COMPOSER=%composer%" %haslyrics%--tag-from-file=LYRICS="%lyricsfile%"%haslyrics% -T "ALBUMARTIST=%albumartist%" -T "DISCNUMBER=%cdnumber%" -T "TOTALDISCS=%totalcds%" -T "TOTALTRACKS=%numtracks%" -T "COMMENT=%comment%" %source% -o %dest%
TOC of the extracted CD
Track | Start | Length | Start sector | End sector --------------------------------------------------------- 1 | 0:00.00 | 2:31.25 | 0 | 11349 2 | 2:31.25 | 3:19.08 | 11350 | 26282 3 | 5:50.33 | 3:25.62 | 26283 | 41719 4 | 9:16.20 | 4:53.47 | 41720 | 63741 5 | 14:09.67 | 1:35.38 | 63742 | 70904 6 | 15:45.30 | 3:20.36 | 70905 | 85940 7 | 19:05.66 | 7:27.05 | 85941 | 119470 8 | 26:32.71 | 3:03.26 | 119471 | 133221 9 | 29:36.22 | 3:05.39 | 133222 | 147135 10 | 32:41.61 | 6:10.28 | 147136 | 174913 11 | 38:52.14 | 2:01.21 | 174914 | 184009 12 | 40:53.35 | 1:35.66 | 184010 | 191200 13 | 42:29.26 | 2:25.49 | 191201 | 202124 14 | 44:55.00 | 3:54.38 | 202125 | 219712 15 | 48:49.38 | 0:33.29 | 219713 | 222216 16 | 49:22.67 | 1:51.17 | 222217 | 230558 17 | 51:14.09 | 0:36.53 | 230559 | 233311 18 | 51:50.62 | 1:11.10 | 233312 | 238646 19 | 53:01.72 | 2:47.14 | 238647 | 251185 20 | 55:49.11 | 3:11.59 | 251186 | 265569 21 | 59:00.70 | 2:47.01 | 265570 | 278095 22 | 61:47.71 | 1:56.32 | 278096 | 286827 23 | 63:44.28 | 1:33.42 | 286828 | 293844
Track 1
Filename C:\UPPINGS\01 - Rorate coeli desuper.wav
Pre-gap length 0:00:02.00
Peak level 35.9 % Extraction speed 1.2 X Track quality 100.0 % Test CRC D7E600F9 Copy CRC D7E600F9 Accurately ripped (confidence 2) [04FB060D] (AR v2) Copy OK
Track 2
Filename C:\UPPINGS\02 - Veni veni Emanuel.wav
Peak level 88.8 % Extraction speed 1.3 X Track quality 100.0 % Test CRC 4D5D6409 Copy CRC 4D5D6409 Accurately ripped (confidence 2) [2F03A5B4] (AR v2) Copy OK
Track 3
Filename C:\UPPINGS\03 - Es ist ein Ros entsprungen.wav
Peak level 45.2 % Extraction speed 1.3 X Track quality 99.9 % Test CRC 3D86CFAD Copy CRC 3D86CFAD Accurately ripped (confidence 2) [BC24C19B] (AR v2) Copy OK
Track 4
Filename C:\UPPINGS\04 - Dum deambularent Dominus in Paradisum.wav
Peak level 74.0 % Extraction speed 1.6 X Track quality 100.0 % Test CRC 444B54D2 Copy CRC 444B54D2 Accurately ripped (confidence 2) [A8335CB3] (AR v2) Copy OK
Track 5
Filename C:\UPPINGS\05 - Adam lay ibounden.wav
Peak level 72.3 % Extraction speed 1.4 X Track quality 100.0 % Test CRC 8C0E0EA3 Copy CRC 8C0E0EA3 Accurately ripped (confidence 2) [5AE686E3] (AR v2) Copy OK
Track 6
Filename C:\UPPINGS\06 - In dulci iubilo.wav
Peak level 89.4 % Extraction speed 1.5 X Track quality 99.9 % Test CRC 2C50A5E9 Copy CRC 2C50A5E9 Accurately ripped (confidence 2) [56D53701] (AR v2) Copy OK
Track 7
Filename C:\UPPINGS\07 - Missus est Gabriel.wav
Peak level 86.1 % Extraction speed 2.0 X Track quality 100.0 % Test CRC FCF27367 Copy CRC FCF27367 Accurately ripped (confidence 2) [BA83FD1C] (AR v2) Copy OK
Track 8
Filename C:\UPPINGS\08 - Chant- Puer natus est.wav
Peak level 33.8 % Extraction speed 1.9 X Track quality 100.0 % Test CRC A2FD16E3 Copy CRC A2FD16E3 Accurately ripped (confidence 2) [7CB915FA] (AR v2) Copy OK
Track 9
Filename C:\UPPINGS\09 - O magnum mysterium.wav
Peak level 71.5 % Extraction speed 2.0 X Track quality 100.0 % Test CRC 6662A2EE Copy CRC 6662A2EE Accurately ripped (confidence 2) [374BD481] (AR v2) Copy OK
Track 10
Filename C:\UPPINGS\10 - Voi ch'ai notturni rai.wav
Peak level 76.1 % Extraction speed 2.2 X Track quality 100.0 % Test CRC 490582C9 Copy CRC 490582C9 Accurately ripped (confidence 2) [174F91B4] (AR v2) Copy OK
Track 11
Filename C:\UPPINGS\11 - Dormi, dormi O bel bambin.wav
Peak level 45.6 % Extraction speed 2.0 X Track quality 100.0 % Test CRC 11990473 Copy CRC 11990473 Accurately ripped (confidence 2) [B59B913D] (AR v2) Copy OK
Track 12
Filename C:\UPPINGS\12 - Liebe Hirten.wav
Peak level 83.0 % Extraction speed 1.8 X Track quality 100.0 % Test CRC DCBFEFB3 Copy CRC DCBFEFB3 Accurately ripped (confidence 2) [4103A8D6] (AR v2) Copy OK
Track 13
Filename C:\UPPINGS\13 - Andachtsjodler.wav
Peak level 63.0 % Extraction speed 2.1 X Track quality 100.0 % Test CRC 9579B9E0 Copy CRC 9579B9E0 Accurately ripped (confidence 2) [DC1ECB06] (AR v2) Copy OK
Track 14
Filename C:\UPPINGS\14 - We three kings.wav
Peak level 64.8 % Extraction speed 2.3 X Track quality 100.0 % Test CRC 5C485F20 Copy CRC 5C485F20 Accurately ripped (confidence 2) [19D57B8F] (AR v2) Copy OK
Track 15
Filename C:\UPPINGS\15 - Videntes stellam.wav
Peak level 46.9 % Extraction speed 1.2 X Track quality 100.0 % Test CRC 514E8C07 Copy CRC 514E8C07 Accurately ripped (confidence 2) [7FCDB80A] (AR v2) Copy OK
Track 16
Filename C:\UPPINGS\16 - Personent hodie.wav
Peak level 100.0 % Extraction speed 1.6 X Track quality 99.9 % Test CRC FA7A3F02 Copy CRC FA7A3F02 Accurately ripped (confidence 2) [5A8EEDEE] (AR v2) Copy OK
Track 17
Filename C:\UPPINGS\17 - Herodes iratus.wav
Peak level 34.0 % Extraction speed 1.3 X Track quality 100.0 % Test CRC 19BB29DA Copy CRC 19BB29DA Accurately ripped (confidence 2) [3BB9AF15] (AR v2) Copy OK
Track 18
Filename C:\UPPINGS\18 - Vox in Rama.wav
Peak level 48.1 % Extraction speed 1.9 X Track quality 100.0 % Test CRC 9DF4A462 Copy CRC 9DF4A462 Accurately ripped (confidence 2) [F4C84943] (AR v2) Copy OK
Track 19
Filename C:\UPPINGS\19 - Uebers Gebirg.wav
Peak level 98.9 % Extraction speed 2.3 X Track quality 100.0 % Test CRC E664C22B Copy CRC E664C22B Accurately ripped (confidence 2) [B1E1573D] (AR v2) Copy OK
Track 20
Filename C:\UPPINGS\20 - Maria wallt zum Heiligtum.wav
Peak level 72.7 % Extraction speed 2.4 X Track quality 100.0 % Test CRC FA9B9EA4 Copy CRC FA9B9EA4 Accurately ripped (confidence 2) [72D0954F] (AR v2) Copy OK
Track 21
Filename C:\UPPINGS\21 - The holly and the ivy.wav
Peak level 68.1 % Extraction speed 2.4 X Track quality 100.0 % Test CRC 170A222D Copy CRC 170A222D Accurately ripped (confidence 2) [14002FD4] (AR v2) Copy OK
Track 22
Filename C:\UPPINGS\22 - Barn Jesus i en krybbe la.wav
Peak level 69.4 % Extraction speed 2.2 X Track quality 100.0 % Test CRC 74255FA2 Copy CRC 74255FA2 Accurately ripped (confidence 2) [3CE57E58] (AR v2) Copy OK
Track 23
Filename C:\UPPINGS\23 - We wish you a merry Christmas.wav
Peak level 74.6 % Extraction speed 2.2 X Track quality 100.0 % Test CRC B541AB29 Copy CRC B541AB29 Accurately ripped (confidence 2) [F0056626] (AR v2) Copy OK
All tracks accurately ripped
No errors occurred
End of status report
---- CUETools DB Plugin V2.1.3
[CTDB TOCID: GTUtBbIdsuZtRBYbDgM9kLQFxi8-] found, Submit result: database access error: The remote name could not be resolved: 'db.cuetools.net'[ac3a5029] (3/3) Accurately ripped
==== Log checksum 54368967A9D0FE52FF7126FCF24C8889E9D4FC307FB97E8B101BBEBE0BE75451 ====

Содержание индексной карты (.CUE)

REM GENRE ClassicalREM DATE 2011REM DISCID 5F0F4D17REM COMMENT "ExactAudioCopy v1.0b3"CATALOG 0093046756567PERFORMER "Paul Hillier"TITLE "The Christmas Story"FILE "01 - Rorate coeli desuper.wav" WAVE TRACK 01 AUDIO TITLE "Rorate coeli desuper" PERFORMER "Paul Hillier" ISRC USHM11156501 INDEX 01 00:00:00FILE "02 - Veni veni Emanuel.wav" WAVE TRACK 02 AUDIO TITLE "Veni veni Emanuel" PERFORMER "Paul Hillier" ISRC USHM11156502 INDEX 01 00:00:00FILE "03 - Es ist ein Ros entsprungen.wav" WAVE TRACK 03 AUDIO TITLE "Es ist ein Ros entsprungen" PERFORMER "Paul Hillier" ISRC USHM11156503 INDEX 01 00:00:00FILE "04 - Dum deambularet Dominus in Paradisum.wav" WAVE TRACK 04 AUDIO TITLE "Dum deambularet Dominus in Paradisum" PERFORMER "Paul Hillier" ISRC USHM11156504 INDEX 01 00:00:00FILE "05 - Adam lay y-bounden.wav" WAVE TRACK 05 AUDIO TITLE "Adam lay y-bounden" PERFORMER "Paul Hillier" ISRC USHM11156504 INDEX 01 00:00:00FILE "06 - In dulci iubilo.wav" WAVE TRACK 06 AUDIO TITLE "In dulci iubilo" PERFORMER "Paul Hillier" ISRC USHM11156506 INDEX 01 00:00:00FILE "07 - Missus est Gabriel.wav" WAVE TRACK 07 AUDIO TITLE "Missus est Gabriel" PERFORMER "Paul Hillier" ISRC USHM11156506 INDEX 01 00:00:00FILE "08 - Puer natus est.wav" WAVE TRACK 08 AUDIO TITLE "Puer natus est" PERFORMER "Paul Hillier" ISRC USHM11156508 INDEX 01 00:00:00FILE "09 - O magnum mysterium.wav" WAVE TRACK 09 AUDIO TITLE "O magnum mysterium" PERFORMER "Paul Hillier" ISRC USHM11156509 INDEX 01 00:00:00FILE "10 - Voi ch'ai notturni rai.wav" WAVE TRACK 10 AUDIO TITLE "Voi ch'ai notturni rai" PERFORMER "Paul Hillier" ISRC USHM11156509 INDEX 01 00:00:00FILE "11 - Dormi, dormi, o bel bambin.wav" WAVE TRACK 11 AUDIO TITLE "Dormi, dormi, o bel bambin" PERFORMER "Paul Hillier" ISRC USHM11156511 INDEX 01 00:00:00FILE "12 - Liebe Hirten.wav" WAVE TRACK 12 AUDIO TITLE "Liebe Hirten" PERFORMER "Paul Hillier" ISRC USHM11156512 INDEX 01 00:00:00FILE "13 - Andachtsjodler.wav" WAVE TRACK 13 AUDIO TITLE "Andachtsjodler" PERFORMER "Paul Hillier" ISRC USHM11156513 INDEX 01 00:00:00FILE "14 - We three kings.wav" WAVE TRACK 14 AUDIO TITLE "We three kings" PERFORMER "Paul Hillier" ISRC USHM11156514 INDEX 01 00:00:00FILE "15 - Videntes stellam.wav" WAVE TRACK 15 AUDIO TITLE "Videntes stellam" PERFORMER "Paul Hillier" ISRC USHM11156515 INDEX 01 00:00:00FILE "16 - Personent hodie.wav" WAVE TRACK 16 AUDIO TITLE "Personent hodie" PERFORMER "Paul Hillier" ISRC USHM11156516 INDEX 01 00:00:00FILE "17 - Herodes iratus.wav" WAVE TRACK 17 AUDIO TITLE "Herodes iratus" PERFORMER "Paul Hillier" ISRC USHM11156517 INDEX 01 00:00:00FILE "18 - Vox in Rama.wav" WAVE TRACK 18 AUDIO TITLE "Vox in Rama" PERFORMER "Paul Hillier" ISRC USHM11156518 INDEX 01 00:00:00FILE "19 - Uebers Gebirg.wav" WAVE TRACK 19 AUDIO TITLE "Uebers Gebirg" PERFORMER "Paul Hillier" ISRC USHM11156519 INDEX 01 00:00:00FILE "20 - Maria wallt zum Heiligtum.wav" WAVE TRACK 20 AUDIO TITLE "Maria wallt zum Heiligtum" PERFORMER "Paul Hillier" ISRC USHM11156520 INDEX 01 00:00:00FILE "21 - The holly and the ivy.wav" WAVE TRACK 21 AUDIO TITLE "The holly and the ivy" PERFORMER "Paul Hillier" ISRC USHM11156521 INDEX 01 00:00:00FILE "22 - Barn Jesus i en krybbe la.wav" WAVE TRACK 22 AUDIO TITLE "Barn Jesus i en krybbe la" PERFORMER "Paul Hillier" ISRC USHM11156522 INDEX 01 00:00:00FILE "23 - We wish you a merry Christmas.wav" WAVE TRACK 23 AUDIO TITLE "We wish you a merry Christmas" PERFORMER "Paul Hillier" ISRC USHM11156523 INDEX 01 00:00:00

Отчет CUETools

[CUETools log; Date: 04.03.2014 2:30:43; Version: 2.1.4][CTDB TOCID: GTUtBbIdsuZtRBYbDgM9kLQFxi8-] found.Track | CTDB Status 1 | (4/4) Accurately ripped 2 | (4/4) Accurately ripped 3 | (4/4) Accurately ripped 4 | (4/4) Accurately ripped 5 | (4/4) Accurately ripped 6 | (4/4) Accurately ripped 7 | (4/4) Accurately ripped 8 | (4/4) Accurately ripped 9 | (4/4) Accurately ripped 10 | (4/4) Accurately ripped 11 | (4/4) Accurately ripped 12 | (4/4) Accurately ripped 13 | (4/4) Accurately ripped 14 | (4/4) Accurately ripped 15 | (4/4) Accurately ripped 16 | (4/4) Accurately ripped 17 | (4/4) Accurately ripped 18 | (4/4) Accurately ripped 19 | (4/4) Accurately ripped 20 | (4/4) Accurately ripped 21 | (4/4) Accurately ripped 22 | (4/4) Accurately ripped 23 | (4/4) Accurately ripped[AccurateRip ID: 003c9b99-03d91d8d-5f0f4d17] found.Track [ CRC | V2 ] Status 01 [09bb60c1|04fb060d] (0+4/4) Accurately ripped 02 [5bcae1f4|2f03a5b4] (0+4/4) Accurately ripped 03 [8c71f5a9|bc24c19b] (0+4/4) Accurately ripped 04 [f3186c94|a8335cb3] (0+4/4) Accurately ripped 05 [d38905e8|5ae686e3] (0+4/4) Accurately ripped 06 [73806a7b|56d53701] (0+4/4) Accurately ripped 07 [dc062cac|ba83fd1c] (0+4/4) Accurately ripped 08 [a18bb7ca|7cb915fa] (0+4/4) Accurately ripped 09 [1e2f2173|374bd481] (0+4/4) Accurately ripped 10 [95a0a169|174f91b4] (0+4/4) Accurately ripped 11 [3e46732c|b59b913d] (0+4/4) Accurately ripped 12 [7651d1e6|4103a8d6] (0+4/4) Accurately ripped 13 [92774074|dc1ecb06] (0+4/4) Accurately ripped 14 [59000d70|19d57b8f] (0+4/4) Accurately ripped 15 [49714974|7fcdb80a] (0+4/4) Accurately ripped 16 [0f8b90ab|5a8eedee] (0+4/4) Accurately ripped 17 [b895ab93|3bb9af15] (0+4/4) Accurately ripped 18 [db0313e6|f4c84943] (0+4/4) Accurately ripped 19 [bf8a236f|b1e1573d] (0+4/4) Accurately ripped 20 [7552ae7a|72d0954f] (0+4/4) Accurately ripped 21 [221455c1|14002fd4] (0+4/4) Accurately ripped 22 [d3a81973|3ce57e58] (0+4/4) Accurately ripped 23 [367031c0|f0056626] (0+4/4) Accurately ripped
Track Peak [ CRC32 ] [W/O NULL] [ LOG ] -- 100,0 [B45ED703] [38C69B4C] 01 35,9 [D7E600F9] [0991C89B] CRC32 02 88,8 [4D5D6409] [BA26D0F3] CRC32 03 45,2 [3D86CFAD] [FCBAA27F] CRC32 04 74,0 [444B54D2] [7A75DC4B] CRC32 05 72,3 [8C0E0EA3] [32736BF6] CRC32 06 89,4 [2C50A5E9] [CAD30C27] CRC32 07 86,1 [FCF27367] [73974D62] CRC32 08 33,8 [A2FD16E3] [C2418C8B] CRC32 09 71,5 [6662A2EE] [A1DB1593] CRC32 10 76,1 [490582C9] [0F9BB41D] CRC32 11 45,6 [11990473] [8365AD99] CRC32 12 83,0 [DCBFEFB3] [6F778062] CRC32 13 63,0 [9579B9E0] [A0E32319] CRC32 14 64,8 [5C485F20] [8B30825D] CRC32 15 46,9 [514E8C07] [2B03E4FF] CRC32 16 100,0 [FA7A3F02] [2C048343] CRC32 17 34,0 [19BB29DA] [05A3BDD3] CRC32 18 48,1 [9DF4A462] [DC47960A] CRC32 19 98,9 [E664C22B] [72E8A536] CRC32 20 72,7 [FA9B9EA4] [813C7626] CRC32 21 68,1 [170A222D] [0AC80F66] CRC32 22 69,4 [74255FA2] [55732BB6] CRC32 23 74,6 [B541AB29] [EFF5CDDB] CRC32

Review by Stephen Eddins

The full title of this album gives a good overview of its contents and artistic intent: the Christmas story told in chant, motets, dialogues and traditional folk carols. Listeners should be aware that it's not a playful CD of "fun" holiday music, but a serious, thoughtfully assembled collection of Christmas music spanning the history of the Western European tradition, from plainchant to contemporary anthems and arrangements made especially for this album. Its format is based loosely on the Anglican service of Nine Lessons and Carols. Theatre of Voices, a mixed vocal quartet supplemented by organ and theorbo (or guitar), sings four lessons, three Biblical stories in Baroque Italian settings, plus the traditional We Three Kings. The carols, traditionally sung by the choir or congregation at the Christmas Eve service, are sung a cappella by the chamber choir, Ars Nova Copenhagen. The performances, led by Paul Hillier, are absolutely first-rate. Theatre of Voices, an ensemble of soloists, sings with exquisite purity, intonation, blend, and balance. Ars Nova Copenhagen has the same outstanding musical strengths, but simply by virtue of the relative size of the group, it makes a dramatic contrast in its contributions, which take up the bulk of the album. In spite of its size -- only four singers on a part -- it produces a wonderfully robust sound. The variety of the repertoire and the exceptionally high performance standards make this an album that should be attractive to anyone looking for a quality survey of Christmas music through the ages. The sound of Harmonia Mundi's hybrid SACD is clean, well-balanced, and natural.
[teatrix.ru].t7977.torrent 
Торрент: Зарегистрирован [ 2015-10-14 02:49 ] · 03F89B821E7F5E9811C3B9DD2E43DA497647FF87

Скачать .torrent

Скачать

12 KB

Статус: проверено
Скачан: 0 раз
Размер: 257 MB
terms.php



Быстрый ответ

Имя:

      
Для отправки сообщений необходимо включить JavaScript
Показать сообщения:    

Текущее время: 02-Дек 21:11

Часовой пояс: UTC + 3


Вы можете начинать темы
Вы можете отвечать на сообщения
Вы не можете редактировать свои сообщения
Вы не можете удалять свои сообщения
Вы не можете голосовать в опросах
Вы не можете прикреплять файлы к сообщениям
Вы можете скачивать файлы