(Classical) Schubert - Missa Solemnis in E flat No.6, D.950 (Orgonasova, Remmert, Walt, Holzmair, Scharinger; Harnoncourt, Chamber Orchestra of Europe, Arnold Schoenberg Choir) - 1997, FLAC (image+.cue) lossless


Статистика раздачи [Обновить пиров]
Размер:  223 MB   |    Зарегистрирован:  1 год 1 месяц   |    Скачан:  0 раз

Полного источника не было: Никогда

 
   
 
 
 

[Цитировать]

Schubert - Missa Solemnis in E flat No.6, D.950 (Harnoncourt)
Жанр: Classical
Год издания диска: 1997
Издатель (лейбл): Teldec
Номер по каталогу: 0630-13163-2
Аудиокодек: FLAC
Тип рипа: image+.cue
Битрейт аудио: lossless
Продолжительность: 52:29
Источник: собственный рип
Наличие сканов в содержимом раздачи: да
Треклист:
Messe Nr. 6 Es-dur D.950
1. Kyrie (5:26)
2. Gloria (12:45)
3. Credo (15:25)
4. Sanctus (3:14)
5. Benedictus (5:51)
6. Agnus Dei (9:00)
Исполнители:
Luba Orgonasova - Soprano,
Birgit Remmert - Contralto
Deon Van der Walt - Tenor
Wolfgang Holzmair - Baritone (Tenor II+Benedictus),
Anton Scharinger - Bass
Chamber Orchestra of Europe
Arnold Schoenberg Choir
Nikolaus Harnoncourt - Conductor

LOG EAC

Exact Audio Copy V1.0 beta 3 from 29. August 2011
EAC extraction logfile from 18. January 2014, 20:53
Harnoncourt, Chamber Orch. of Europe, Arnold Schoenberg Chor / Schubert - Messe Nr.6 D.950 (Harnoncourt)
Used drive : ATAPI iHAS122 C Adapter: 0 ID: 1
Read mode : SecureUtilize accurate stream : YesDefeat audio cache : YesMake use of C2 pointers : No
Read offset correction : 6Overread into Lead-In and Lead-Out : NoFill up missing offset samples with silence : YesDelete leading and trailing silent blocks : NoNull samples used in CRC calculations : YesUsed interface : Installed external ASPI interface
Used output format : User Defined EncoderSelected bitrate : 192 kBit/sQuality : HighAdd ID3 tag : NoCommand line compressor : C:\Program Files\Exact Audio Copy\Flac\flac.exeAdditional command line options : -V -8 -T "Date=%year%" -T "Genre=%genre%" %source%
TOC of the extracted CD
Track | Start | Length | Start sector | End sector --------------------------------------------------------- 1 | 0:00.00 | 5:28.12 | 0 | 24611 2 | 5:28.12 | 12:55.63 | 24612 | 82799 3 | 18:24.00 | 15:38.37 | 82800 | 153186 4 | 34:02.37 | 3:25.25 | 153187 | 168586 5 | 37:27.62 | 6:00.50 | 168587 | 195636 6 | 43:28.37 | 9:00.30 | 195637 | 236166
Range status and errors
Selected range
Filename C:\Program Files\Exact Audio Copy\Flac\Schubert - Messe Nr.6 D.950 (Harnoncourt).wav
Peak level 99.5 % Extraction speed 8.6 X Range quality 100.0 % Test CRC F5D0E3E9 Copy CRC F5D0E3E9 Copy OK
No errors occurred
AccurateRip summary
Track 1 accurately ripped (confidence 4) [711B217E] (AR v2)Track 2 accurately ripped (confidence 4) [C155D649] (AR v2)Track 3 accurately ripped (confidence 4) [2DCEC0F8] (AR v2)Track 4 accurately ripped (confidence 4) [C5570BAD] (AR v2)Track 5 accurately ripped (confidence 4) [ADB807ED] (AR v2)Track 6 accurately ripped (confidence 4) [1BC98F8D] (AR v2)
All tracks accurately ripped
End of status report
==== Log checksum 750B5D461C135A3BE1774D901090B7F1491C497A6433EF7BF41A15162A196217 ====
mp3
[teatrix.ru].t7978.torrent 
Торрент: Зарегистрирован [ 2015-10-14 02:49 ] · 5052A5F5FDAF078BF8B47A49A7A17BDC106510

Скачать .torrent

Скачать

18 KB

Статус: проверено
Скачан: 0 раз
Размер: 223 MB
terms.php



Быстрый ответ

Имя:

      
Для отправки сообщений необходимо включить JavaScript
Показать сообщения:    

Текущее время: 10-Дек 08:05

Часовой пояс: UTC + 3


Вы можете начинать темы
Вы можете отвечать на сообщения
Вы не можете редактировать свои сообщения
Вы не можете удалять свои сообщения
Вы не можете голосовать в опросах
Вы не можете прикреплять файлы к сообщениям
Вы можете скачивать файлы